[4K电影] 欢乐好声音2 / Sing 2 (2021) 4K高清版本下载

[复制链接]

1323

主题

1428

帖子

1万

积分

超级版主

Rank: 8Rank: 8

积分
11131
 楼主| 发表于 2022-1-7 20:02:18 | 显示全部楼层 |阅读模式
本帖最后由 最爱4K哟 于 2022-1-8 09:56 编辑

QQ图片20220107194953_副本.png

◎译  名 欢乐好声音2 / 星梦动物园2(港)
◎片  名 Sing 2
◎年  代 2021
◎产  地 美国 / 法国 / 日本
◎类  别 喜剧 / 动画 / 歌舞 / 冒险
◎语  言 英语
◎上映日期 2021-12-22(美国)
◎IMDb评分  7.6/10 from 7057 users
◎IMDb链接  https://www.imdb.com/title/tt6467266/
◎豆瓣评分 0/10 from 0 users
◎豆瓣链接 https://movie.douban.com/subject/26962981/
◎片  长 110分钟
◎导  演 加斯·詹宁斯
◎编  剧 加斯·詹宁斯
◎主  演 马修·麦康纳
                   瑞茜·威瑟斯彭
                   塔伦·埃哲顿
                   斯嘉丽·约翰逊
                   托瑞·凯利
                   尼克·克罗尔
                   鲍比·坎纳瓦尔
                   哈尔希
                   博诺
                   埃里克·安德烈
                   法瑞尔·威廉姆斯
                   利蒂希娅·赖特
                   切尔西·帕瑞蒂
                   加斯·詹宁斯
                   亚当·布克斯顿
                   珍妮弗·桑德斯
                   彼得·塞拉菲诺威茨


◎简  介

       今年年底佳节,照明娱乐全球卖座动画电影系列的全新篇章即将展开,有更伟大的梦想和更多超夯流行金曲。野心勃勃的无尾熊巴斯特穆恩,以及他旗下的全明星动物艺人,即将呈献史上最华丽耀眼的舞台大秀…而且是在绚烂夺目的世界娱乐之都举行。但是有一个难关:他们必须先说服全世界最孤僻的摇滚巨星-由音乐传奇人物波诺首度为动画片献声演出-加入他们的表演行列。
  巴斯特(金奖影帝马修麦康纳 配音)以及他旗下的艺人将他的新穆恩剧院,转变成当地最火红的表演场地,但是他现在有一个更大的野心,那就是在光芒万丈的红滩市的克里斯托塔剧院,举办一场全新歌舞大秀的首演会。
  完全没有任何娱乐圈的人脉可言,巴斯特和他旗下的艺人-包括总是忧心忡忡的猪妈妈萝希坦(金奖影后瑞丝薇斯朋 配音)、摇滚女豪猪爱希(史嘉蕾乔韩森 配音)、认真努力的大猩猩强尼(泰隆艾格顿 配音)、内向害羞的大象米娜(托蕾凯莉 配音),当然还有爱现猪仔刚特(尼克克罗尔 配音)-必须偷偷溜进由一匹冷血无情的娱乐大亨野狼吉米克里斯托(艾美奖得主巴比卡纳佛 配音)一手打造经营,举世闻名的克里斯托娱乐公司的办公室。
  为了得到克里斯托先生的注意被逼到狗急跳牆的刚特,突然灵光一闪,给了巴斯特一个超浮夸的点子,巴斯特也逼不得已採用了这个点子,那就是向克里斯托先生挂保证,他们全新的歌舞大秀将由传奇摇滚狮子歌王柯雷卡洛威(波诺 配音)领衔主演。但问题是,巴斯特从来没见过柯雷,而且这名传奇摇滚歌王早就在十几年前,因为痛失爱妻从音乐界引退,独自隐居了十几年,再也没有人见过他。
  当刚特正在帮助巴斯特设计出一场举世无双的舞台歌舞秀经典杰作,来自克里斯托先生的压力(以及可怕的威胁)也越来越大,巴斯特就展开一场寻找传奇摇滚狮子歌王柯雷卡洛威的大冒险,希望能够说服他重返舞台。原本只是巴斯特想要扬名立万的春秋大梦,却转变成一个现代寓言,提醒了每一个人,音乐的力量强大到足以疗癒一颗最悲伤的破碎的心。
General
Complete name                  : H:\4K@电影\Sing.2.2021.2160p.WEB-DL.x265.10bit.SDR.DDP5.1.Atmos-NOGRP.mkv
Format                         : Matroska
Format version                 : Version 4
File size                      : 16.3 GiB
Duration                       : 1 h 49 min
Overall bit rate               : 21.3 Mb/s
Encoded date                   : UTC 2022-01-07 06:03:18
Writing application            : mkvmerge v63.0.0 ('Everything') 64-bit
Writing library                : libebml v1.4.2 + libmatroska v1.6.4

Video
ID                             : 1
Format                         : HEVC
Format/Info                    : High Efficiency Video Coding
Format profile                 : Main 10@L5@High
Codec ID                       : V_MPEGH/ISO/HEVC
Duration                       : 1 h 49 min
Bit rate                       : 20.1 Mb/s
Width                          : 3 840 pixels
Height                         : 2 074 pixels
Display aspect ratio           : 1.85:1
Frame rate mode                : Constant
Frame rate                     : 23.976 (24000/1001) FPS
Color space                    : YUV
Chroma subsampling             : 4:2:0
Bit depth                      : 10 bits
Bits/(Pixel*Frame)             : 0.105
Stream size                    : 15.4 GiB (94%)
Default                        : Yes
Forced                         : No
Color range                    : Limited
Color primaries                : BT.709
Transfer characteristics       : BT.709
Matrix coefficients            : BT.709

Audio
ID                             : 2
Format                         : E-AC-3 JOC
Format/Info                    : Enhanced AC-3 with Joint Object Coding
Commercial name                : Dolby Digital Plus with Dolby Atmos
Codec ID                       : A_EAC3
Duration                       : 1 h 49 min
Bit rate mode                  : Constant
Bit rate                       : 768 kb/s
Channel(s)                     : 6 channels
Channel layout                 : L R C LFE Ls Rs
Sampling rate                  : 48.0 kHz
Frame rate                     : 31.250 FPS (1536 SPF)
Compression mode               : Lossy
Stream size                    : 603 MiB (4%)
Title                          : English
Language                       : English
Service kind                   : Complete Main
Default                        : No
Forced                         : No
Complexity index               : 16
Number of dynamic objects      : 15
Bed channel count              : 1 channel
Bed channel configuration      : LFE

Text #1
ID                             : 3
Format                         : UTF-8
Codec ID                       : S_TEXT/UTF8
Codec ID/Info                  : UTF-8 Plain Text
Language                       : English
Default                        : Yes
Forced                         : No

Text #2
ID                             : 4
Format                         : UTF-8
Codec ID                       : S_TEXT/UTF8
Codec ID/Info                  : UTF-8 Plain Text
Title                          : SDH
Language                       : English
Default                        : No
Forced                         : No

迅雷下载资源速度为零或资源敏感被和谐时,推荐使用qBittorrent等下载软件,有条件的推荐115更好的下载软件!


下载地址:

游客,如果您要查看本帖隐藏内容请回复

游客,如果您要查看本帖隐藏内容请回复
游客,如果您要查看本帖隐藏内容请回复

游客,如果您要查看本帖隐藏内容请回复

游客,如果您要查看本帖隐藏内容请回复

游客,如果您要查看本帖隐藏内容请回复



.


上一篇:温柔酒吧(内封简繁中字)/The Tender Bar (2021)4K高清版本下载
下一篇:普什帕:崛起-第1部分/Pushpa - The Rise: Part 1(2021) 4K高清版本下载
回复

使用道具 举报

1323

主题

1428

帖子

1万

积分

超级版主

Rank: 8Rank: 8

积分
11131
 楼主| 发表于 2022-1-7 20:09:01 | 显示全部楼层
Sing.2.2021.2160p.WEB-DL.x265.10bit.SDR.DDP5.1.Atmos-NOGRP.mkv_20220107_200235.595.jpg Sing.2.2021.2160p.WEB-DL.x265.10bit.SDR.DDP5.1.Atmos-NOGRP.mkv_20220107_200248.139.jpg Sing.2.2021.2160p.WEB-DL.x265.10bit.SDR.DDP5.1.Atmos-NOGRP.mkv_20220107_200254.387.jpg Sing.2.2021.2160p.WEB-DL.x265.10bit.SDR.DDP5.1.Atmos-NOGRP.mkv_20220107_200309.371.jpg Sing.2.2021.2160p.WEB-DL.x265.10bit.SDR.DDP5.1.Atmos-NOGRP.mkv_20220107_200329.307.jpg Sing.2.2021.2160p.WEB-DL.x265.10bit.SDR.DDP5.1.Atmos-NOGRP.mkv_20220107_200437.491.jpg Sing.2.2021.2160p.WEB-DL.x265.10bit.SDR.DDP5.1.Atmos-NOGRP.mkv_20220107_200612.443.jpg Sing.2.2021.2160p.WEB-DL.x265.10bit.SDR.DDP5.1.Atmos-NOGRP.mkv_20220107_200626.307.jpg
回复 支持 反对

使用道具 举报

2

主题

1313

帖子

3805

积分

4K家园VIP

Rank: 9Rank: 9Rank: 9

积分
3805
发表于 2022-1-7 20:02:24 来自手机 | 显示全部楼层
高手云集 果断围观
回复 支持 反对

使用道具 举报

56

主题

1512

帖子

4420

积分

4K家园VIP

Rank: 9Rank: 9Rank: 9

积分
4420
发表于 2022-1-7 20:42:45 | 显示全部楼层
看帖要回,回帖才健康,在踩踩,楼主辛苦了!
回复 支持 反对

使用道具 举报

2

主题

1299

帖子

3747

积分

4K家园VIP

Rank: 9Rank: 9Rank: 9

积分
3747
发表于 2022-1-7 20:55:46 | 显示全部楼层
小白一个 顶一下
回复 支持 反对

使用道具 举报

0

主题

1319

帖子

3779

积分

4K家园VIP

Rank: 9Rank: 9Rank: 9

积分
3779
发表于 2022-1-7 21:13:44 | 显示全部楼层
哈哈,我只看看不说话
回复 支持 反对

使用道具 举报

2

主题

1153

帖子

3475

积分

4K家园VIP

Rank: 9Rank: 9Rank: 9

积分
3475
发表于 2022-1-8 00:30:26 | 显示全部楼层
还有没有别的资源,多分享些
回复 支持 反对

使用道具 举报

0

主题

31

帖子

57

积分

新手上路

Rank: 1

积分
57
发表于 2022-1-8 00:38:59 来自手机 | 显示全部楼层
2021-12-14 19:00:06 4K家园不错,希望这种资源越多越好
回复 支持 反对

使用道具 举报

0

主题

1

帖子

6

积分

新手上路

Rank: 1

积分
6
发表于 2022-1-8 17:34:53 | 显示全部楼层
顶顶顶顶顶顶顶, 希望是真的
回复 支持 反对

使用道具 举报

0

主题

1

帖子

6

积分

新手上路

Rank: 1

积分
6
发表于 2022-1-8 19:25:26 | 显示全部楼层
楼主好人
回复

使用道具 举报

您需要登录后才可以回帖 登录 | 立即注册

本版积分规则

精彩图文
Archiver|手机版|TAG|Sitemap|新帖|专题|联系我们:邮箱: 4kjia.com@gmail.com   

4k家园   ©2019