[4K电影] 普什帕:崛起-第1部分/Pushpa - The Rise: Part 1(2021) 4K高清版本下载

[复制链接]

2163

主题

2306

帖子

1万

积分

超级版主

Rank: 8Rank: 8

积分
16861
 楼主| 发表于 2022-1-8 09:39:34 | 显示全部楼层 |阅读模式
QQ图片20220108092356_副本.png

◎译  名 普什帕:崛起-第1部分
◎片  名 Pushpa - The Rise: Part 1
◎年  代 2021
◎产  地 印度 India
◎类  别 剧情 / 动作 / 犯罪 / 冒险
◎语  言 泰卢固语 Telugu
◎上映日期 2021-12-17(印度)
◎IMDb评分  8.1/10 from 21645 users
◎IMDb链接  https://www.imdb.com/title/tt9389998/
◎豆瓣评分 0/10 from 0 users
◎豆瓣链接 https://movie.douban.com/subject/35555915/
◎片  长 179分钟
◎导  演 苏库玛
◎编  剧 苏库玛 / 斯里坎特·维萨
◎主  演 阿卢·阿尔军
                     法哈德·法西尔
                     拉什米卡·曼丹娜
                     贾加帕蒂·巴布
                     普拉卡什·拉贾
                     达南再也
                     苏尼尔
                     哈里什·乌达曼
                     维尼拉·基肖尔
                     安那莎·巴拉德瓦杰
                     拉伊斯卡尔·阿宁吉
                     萨曼莎·鲁斯·帕布
                     拉奥·拉梅什
                     戴亚南德·雷迪



◎简  介

       电影讲述了 卡车司机普什帕-拉吉(阿卢·阿尔军 饰)在南印度塞沙查拉姆森林中走私红檀木的故事。
General
Complete name                  : H:\Pushpa.The.Rise.Telugu.2021.2160p.AMZN.WEB-DL.DDP5.1.H.265-SPECT3R.mkv
Format                         : Matroska
Format version                 : Version 4
File size                      : 12.7 GiB
Duration                       : 2 h 55 min
Overall bit rate               : 10.3 Mb/s
Encoded date                   : UTC 2022-01-07 12:56:29
Writing application            : mkvmerge v62.0.0 ('Apollo') 64-bit
Writing library                : libebml v1.4.2 + libmatroska v1.6.4
IsTruncated                    : Yes

Video
ID                             : 1
Format                         : HEVC
Format/Info                    : High Efficiency Video Coding
Format profile                 : Main@L5@Main
Codec ID                       : V_MPEGH/ISO/HEVC
Duration                       : 2 h 55 min
Bit rate                       : 9 499 kb/s
Width                          : 3 840 pixels
Height                         : 1 600 pixels
Display aspect ratio           : 2.40:1
Frame rate mode                : Constant
Frame rate                     : 24.000 FPS
Standard                       : NTSC
Color space                    : YUV
Chroma subsampling             : 4:2:0
Bit depth                      : 8 bits
Bits/(Pixel*Frame)             : 0.064
Stream size                    : 11.7 GiB (92%)
Writing library                : x265 2.9_elemental+1-9e0607aa5b6f:[Linux][GCC 4.8.5][64 bit] 8bit+10bit+12bit
Encoding settings              : cpuid=1111039 / frame-threads=2 / wpp / no-pmode / no-pme / psnr / ssim / log-level=2 / csv / csv-log-level=2 / input-csp=1 / input-res=3840x1600 / interlace=0 / total-frames=0 / level-idc=50 / high-tier=1 / uhd-bd=0 / ref=5 / no-allow-non-conformance / no-repeat-headers / annexb / no-aud / no-hrd / info / hash=0 / no-temporal-layers / no-open-gop / min-keyint=61 / keyint=120 / gop-lookahead=0 / bframes=8 / b-adapt=2 / b-pyramid / bframe-bias=0 / rc-lookahead=120 / lookahead-slices=4 / scenecut=0 / radl=0 / no-intra-refresh / ctu=64 / min-cu-size=8 / rect / amp / max-tu-size=32 / tu-inter-depth=4 / tu-intra-depth=4 / limit-tu=4 / rdoq-level=2 / dynamic-rd=0.00 / no-ssim-rd / signhide / tskip / nr-intra=100 / nr-inter=600 / no-constrained-intra / strong-intra-smoothing / max-merge=3 / limit-refs=3 / limit-modes / me=3 / subme=3 / merange=57 / temporal-mvp / weightp / weightb / no-analyze-src-pics / deblock=0:0 / no-sao / no-sao-non-deblock / rd=4 / no-early-skip / no-rskip / no-fast-intra / tskip-fast / no-cu-lossless / b-intra / no-splitrd-skip / rdpenalty=0 / psy-rd=4.00 / psy-rdoq=10.00 / no-rd-refine / no-lossless / cbqpoffs=0 / crqpoffs=0 / rc=crf / crf=25.0 / qcomp=0.60 / qpstep=1 / stats-write=0 / stats-read=0 / vbv-maxrate=15000 / vbv-bufsize=20000 / vbv-init=0.9 / crf-max=0.0 / crf-min=0.0 / ipratio=1.10 / pbratio=1.00 / aq-mode=0 / aq-strength=1.50 / no-cutree / zone-count=0 / no-strict-cbr / qg-size=32 / rc-grain / qpmax=69 / qpmin=0 / const-vbv / sar=1 / overscan=0 / videoformat=2 / range=0 / colorprim=1 / transfer=1 / colormatrix=1 / chromaloc=0 / display-window=0 / max-cll=0,0 / min-luma=0 / max-luma=255 / log2-max-poc-lsb=8 / vui-timing-info / vui-hrd-info / slices=1 / opt-qp-pps / no-opt-ref-list-length-pps / no-multi-pass-opt-rps / scenecut-bias=0.05 / no-opt-cu-delta-qp / no-aq-motion / no-hdr / no-hdr-opt / no-dhdr10-opt / no-idr-recovery-sei / analysis-reuse-level=5 / scale-factor=0 / refine-intra=0 / refine-inter=0 / refine-mv=0 / no-limit-sao / ctu-info=0 / no-lowpass-dct / refine-mv-type=0 / copy-pic=1 / max-ausize-factor=1.0 / no-dynamic-refine / no-single-sei
Language                       : Telugu
Default                        : Yes
Forced                         : No
Color range                    : Limited
Color primaries                : BT.709
Transfer characteristics       : BT.709
Matrix coefficients            : BT.709

Audio
ID                             : 2
Format                         : E-AC-3
Format/Info                    : Enhanced AC-3
Commercial name                : Dolby Digital Plus
Codec ID                       : A_EAC3
Duration                       : 2 h 55 min
Bit rate mode                  : Constant
Bit rate                       : 640 kb/s
Channel(s)                     : 6 channels
Channel layout                 : L R C LFE Ls Rs
Sampling rate                  : 48.0 kHz
Frame rate                     : 31.250 FPS (1536 SPF)
Compression mode               : Lossy
Stream size                    : 804 MiB (6%)
Language                       : Telugu
Service kind                   : Complete Main
Default                        : Yes
Forced                         : No

Text
ID                             : 3
Format                         : UTF-8
Codec ID                       : S_TEXT/UTF8
Codec ID/Info                  : UTF-8 Plain Text
Language                       : English
Default                        : No
Forced                         : No

Menu
00:00:00.000                   : en:Studio Logo
00:01:16.000                   : en:Scene 2
00:07:26.000                   : en:Title Sequence
00:07:32.000                   : en:Scene 4
00:14:50.000                   : en:Scene 5
00:20:15.000                   : en:Scene 6
00:28:58.000                   : en:Scene 7
00:33:04.000                   : en:Scene 8
00:40:53.000                   : en:Scene 9
00:47:46.000                   : en:Scene 10
00:54:58.000                   : en:Scene 11
00:59:14.000                   : en:Scene 12
01:06:35.000                   : en:Scene 13
01:12:47.000                   : en:Scene 14
01:19:10.000                   : en:Scene 15
01:28:08.000                   : en:Scene 16
01:35:28.000                   : en:Scene 17
01:42:56.000                   : en:Scene 18
01:52:30.000                   : en:Scene 19
01:59:33.000                   : en:Scene 20
02:04:42.000                   : en:Scene 21
02:04:44.000                   : en:Scene 22
02:10:48.000                   : en:Scene 23
02:16:42.000                   : en:Scene 24
02:23:36.000                   : en:Scene 25
02:28:59.000                   : en:Scene 26
02:33:51.000                   : en:Scene 27
02:41:23.000                   : en:Scene 28
02:52:17.000                   : en:End Credits




迅雷下载资源速度为零或资源敏感被和谐时,推荐使用qBittorrent等下载软件,有条件的推荐115更好的下载软件!

下载地址:


****此区域为收费内容****    需支付 9 金币后可查看立即购买




.

上一篇:欢乐好声音2 / Sing 2 (2021) 4K高清版本下载
下一篇:我如何爱上黑帮成员 (2022) 4K高清版本下载
回复

使用道具 举报

40

主题

1554

帖子

4452

积分

4K家园VIP

Rank: 9Rank: 9Rank: 9

积分
4452
发表于 2022-1-8 09:39:41 | 显示全部楼层
额.....这个可以有
回复 支持 反对

使用道具 举报

1

主题

1352

帖子

4074

积分

4K家园VIP

Rank: 9Rank: 9Rank: 9

积分
4074
发表于 2022-1-8 11:26:27 来自手机 | 显示全部楼层
支持下楼主,顶一个
回复 支持 反对

使用道具 举报

0

主题

433

帖子

2643

积分

注册会员

Rank: 2

积分
2643
发表于 2022-1-8 13:05:42 | 显示全部楼层
谢谢楼主分享
回复 支持 反对

使用道具 举报

4

主题

1243

帖子

3761

积分

4K家园VIP

Rank: 9Rank: 9Rank: 9

积分
3761
发表于 2022-1-8 13:11:18 | 显示全部楼层
OMG!介是啥东东!!!
回复 支持 反对

使用道具 举报

39

主题

1455

帖子

4131

积分

4K家园VIP

Rank: 9Rank: 9Rank: 9

积分
4131
发表于 2022-1-8 16:51:31 | 显示全部楼层
4K家园资源最近貌似越来越多了
回复 支持 反对

使用道具 举报

1

主题

1316

帖子

3964

积分

4K家园VIP

Rank: 9Rank: 9Rank: 9

积分
3964
发表于 2022-1-8 17:01:40 来自手机 | 显示全部楼层
这个资源我记得是一套的,楼主还有没有
回复 支持 反对

使用道具 举报

0

主题

4

帖子

58

积分

4K家园VIP

Rank: 9Rank: 9Rank: 9

积分
58
发表于 2022-1-9 17:08:30 | 显示全部楼层
有字幕吗?
回复

使用道具 举报

0

主题

2

帖子

9

积分

新手上路

Rank: 1

积分
9
发表于 2022-1-16 18:17:33 来自手机 | 显示全部楼层
这是新出的貌似。
回复 支持 反对

使用道具 举报

0

主题

1

帖子

6

积分

新手上路

Rank: 1

积分
6
发表于 2022-1-21 02:29:02 来自手机 | 显示全部楼层
想白漂都不可以
回复 支持 反对

使用道具 举报

您需要登录后才可以回帖 登录 | 立即注册

本版积分规则

精彩图文
Archiver|手机版|TAG|Sitemap|新帖|专题|联系我们:邮箱: 4kjia.com@gmail.com   

4k家园   ©2019