[4K UHD 蓝光原盘] 月光光心慌慌:杀戮(俄版) (2021) 4K蓝光REMUX版本下载

[复制链接]

1310

主题

1377

帖子

1万

积分

超级版主

Rank: 8Rank: 8

积分
15370
 楼主| 发表于 7 天前 | 显示全部楼层 |阅读模式
本帖最后由 没完没了 于 2022-1-9 19:22 编辑

175730syibytyfbyftd4jf.png

◎译  名 月光光心慌慌:杀戮/万圣节杀戮/月光光心慌慌:万圣节杀戮/月光光新慌慌:万圣杀(台)/月光光殺清光(港)
◎片  名 Halloween Kills
◎年  代 2021
◎产  地 英国,美国
◎类  别 惊悚 / 恐怖
◎语  言 英语
◎上映日期 2021-09-08(威尼斯电影节) / 2021-10-15(美国/美国网络)
◎IMDb评分  5.6/10 from 61475 users
◎IMDb链接  https://www.imdb.com/title/tt10665338/
◎豆瓣评分 5.0/10 from 4272 users
◎豆瓣链接 https://movie.douban.com/subject/34626280/
◎片  长 106分钟
◎导  演 大卫·戈登·格林
◎编  剧 约翰·卡朋特  / 大卫·戈登·格林  / 黛布拉·希尔  / 丹尼·麦克布莱德  / 斯科特·泰姆斯
◎主  演 杰米·李·柯蒂斯
       朱迪·格雷尔
       詹姆斯·裘德·柯特尼
       尼克·卡斯特尔
       安迪·马蒂切克
       凯尔·理查兹
       威尔·帕顿
       托马斯·曼
       吉姆·卡明斯
       迪伦·阿诺德
       罗伯特·朗斯特里特
       安东尼·迈克尔·豪尔
       Charles Cyphers
       斯科特·麦克阿瑟
       迈克尔·麦克唐纳
       南希·斯蒂芬斯
       莱尼·克拉克
       奥马尔·J·多尔西
       布莱恩·杜尔金
       德鲁·谢伊德
       尼古拉斯·普罗约尔
       Drew Broderick
       吉布瑞尔·南谭布
       P·J·索尔丝
       鲍勃·奥登科克
       安迪·贝西亚
      卡德罗莎·奥娜·卡罗尔
       Matthew Warzel
       Tanya Jacobson
       迪索·拉莫斯
       Salem Collins


◎简  介

  自洛莉·史特罗德与其女凯伦以及孙女艾莉森设法将迈克·梅尔斯置于火海陷阱之后,麦克成功脱逃,继续他的杀戮,并一路杀到他的故乡——哈顿费尔德(Haddonfield),洛莉三人只能再次为抗击麦克做好准备。她们在鼓动当地民众的同时,与首起屠杀的幸存者组成一支义勇团队,誓在当晚将这位杀人狂魔就地正法。
General
Complete name                  : D:\Halloween.Kills.2021.BDREMUX.2160p.HDR.DVP8.seleZen.mkv
Format                         : Matroska
Format version                 : Version 4
File size                      : 49.7 GiB
Duration                       : 1 h 45 min
Overall bit rate mode          : Variable
Overall bit rate               : 67.7 Mb/s
Movie name                     : Halloween Kills 2021 from seleZen
Encoded date                   : UTC 2022-01-08 21:38:26
Writing application            : mkvmerge v59.0.0 ('Shining Star') 64-bit
Writing library                : libebml v1.4.2 + libmatroska v1.6.4
IsTruncated                    : Yes

Video
ID                             : 1
Format                         : HEVC
Format/Info                    : High Efficiency Video Coding
Format profile                 : Main 10@L5.1@High
HDR format                     : Dolby Vision, Version 1.0, dvhe.08.06, BL+RPU, Blu-ray compatible / SMPTE ST 2086, HDR10 compatible
Codec ID                       : V_MPEGH/ISO/HEVC
Duration                       : 1 h 45 min
Width                          : 3 840 pixels
Height                         : 2 160 pixels
Display aspect ratio           : 16:9
Frame rate mode                : Constant
Frame rate                     : 23.976 (24000/1001) FPS
Color space                    : YUV
Chroma subsampling             : 4:2:0 (Type 2)
Bit depth                      : 10 bits
Language                       : English
Default                        : No
Forced                         : No
Color range                    : Limited
Color primaries                : BT.2020
Transfer characteristics       : PQ
Matrix coefficients            : BT.2020 non-constant
Mastering display color primar : Display P3
Mastering display luminance    : min: 0.0010 cd/m2, max: 1000 cd/m2
Maximum Content Light Level    : 784 cd/m2
Maximum Frame-Average Light Le : 27 cd/m2

Audio #1
ID                             : 2
Format                         : E-AC-3
Format/Info                    : Enhanced AC-3
Commercial name                : Dolby Digital Plus
Codec ID                       : A_EAC3
Duration                       : 1 h 45 min
Bit rate mode                  : Constant
Bit rate                       : 448 kb/s
Channel(s)                     : 6 channels
Channel layout                 : L R C LFE Ls Rs
Sampling rate                  : 48.0 kHz
Frame rate                     : 31.250 FPS (1536 SPF)
Compression mode               : Lossy
Stream size                    : 337 MiB (1%)
Title                          : Dub [Pifagor]
Language                       : Russian
Service kind                   : Complete Main
Default                        : Yes
Forced                         : Yes

Audio #2
ID                             : 3
Format                         : AC-3
Format/Info                    : Audio Coding 3
Commercial name                : Dolby Digital
Codec ID                       : A_AC3
Duration                       : 1 h 45 min
Bit rate mode                  : Constant
Bit rate                       : 448 kb/s
Channel(s)                     : 6 channels
Channel layout                 : L R C LFE Ls Rs
Sampling rate                  : 48.0 kHz
Frame rate                     : 31.250 FPS (1536 SPF)
Compression mode               : Lossy
Stream size                    : 337 MiB (1%)
Title                          : Dub [Pifagor]
Language                       : Russian
Service kind                   : Complete Main
Default                        : No
Forced                         : No

Audio #3
ID                             : 4
Format                         : MLP FBA 16-ch
Format/Info                    : Meridian Lossless Packing FBA with 16-channel presentation
Commercial name                : Dolby TrueHD with Dolby Atmos
Codec ID                       : A_TRUEHD
Duration                       : 1 h 45 min
Bit rate mode                  : Variable
Maximum bit rate               : 3 744 kb/s
Channel(s)                     : 8 channels
Channel layout                 : L R C LFE Ls Rs Lb Rb
Sampling rate                  : 48.0 kHz
Frame rate                     : 1 200.000 FPS (40 SPF)
Compression mode               : Lossless
Title                          : Original
Language                       : English
Default                        : No
Forced                         : No
Number of dynamic objects      : 11
Bed channel count              : 1 channel
Bed channel configuration      : LFE

Audio #4
ID                             : 5
Format                         : AC-3
Format/Info                    : Audio Coding 3
Commercial name                : Dolby Digital
Codec ID                       : A_AC3
Duration                       : 1 h 45 min
Bit rate mode                  : Constant
Bit rate                       : 640 kb/s
Channel(s)                     : 6 channels
Channel layout                 : L R C LFE Ls Rs
Sampling rate                  : 48.0 kHz
Frame rate                     : 31.250 FPS (1536 SPF)
Compression mode               : Lossy
Stream size                    : 481 MiB (1%)
Language                       : English
Service kind                   : Complete Main
Default                        : No
Forced                         : No

Text #1
ID                             : 6
Format                         : UTF-8
Codec ID                       : S_TEXT/UTF8
Codec ID/Info                  : UTF-8 Plain Text
Title                          : Forced
Language                       : Russian
Default                        : Yes
Forced                         : Yes

Text #2
ID                             : 7
Format                         : UTF-8
Codec ID                       : S_TEXT/UTF8
Codec ID/Info                  : UTF-8 Plain Text
Title                          : Full [Official]
Language                       : Russian
Default                        : No
Forced                         : No

Text #3
ID                             : 8
Format                         : UTF-8
Codec ID                       : S_TEXT/UTF8
Codec ID/Info                  : UTF-8 Plain Text
Title                          : Full [MENINSUB]
Language                       : Russian
Default                        : No
Forced                         : No

Text #4
ID                             : 9
Format                         : UTF-8
Codec ID                       : S_TEXT/UTF8
Codec ID/Info                  : UTF-8 Plain Text
Title                          : Full
Language                       : English
Default                        : No
Forced                         : No

Text #5
ID                             : 10
Format                         : UTF-8
Codec ID                       : S_TEXT/UTF8
Codec ID/Info                  : UTF-8 Plain Text
Title                          : SDH
Language                       : English
Default                        : No
Forced                         : No

Menu
00:00:00.000                   : Глава 01
00:07:16.227                   : Глава 02
00:14:09.015                   : Глава 03
00:18:53.549                   : Глава 04
00:24:31.011                   : Глава 05
00:30:45.552                   : Глава 06
00:36:15.048                   : Глава 07
00:40:43.650                   : Глава 08
00:45:06.370                   : Глава 09
00:47:22.548                   : Глава 10
00:53:21.281                   : Глава 11
00:59:46.666                   : Глава 12
01:04:18.021                   : Глава 13
01:09:11.022                   : Глава 14
01:13:56.766                   : Глава 15
01:19:53.080                   : Глава 16
01:24:03.372                   : Глава 17
01:27:44.342                   : Глава 18
01:33:01.951                   : Глава 19
01:40:06.334                   : Глава 20

迅雷下载资源速度为零,资源敏感或被和谐时,推荐使用qBittorrent等无限速下载软件,有条件的推荐115更好的下载软件!


月光光心慌慌:杀戮(49.75GB)Halloween.Kills.2021.BDREMUX.2160p.HDR.DVP8.seleZen-【4K-蓝光REMUX】
****此区域为收费内容****    需支付 30 金币后可查看立即购买

月光光心慌慌:杀戮(58.42GB)Halloween.Kills.2021.BDREMUX.2160p.HDR.DV.seleZen-【4K-蓝光REMUX】
****此区域为收费内容****    需支付 30 金币后可查看立即购买


相关其他版本资源:月光光心慌慌:杀戮 / Halloween Kills (2021) 4K高清版下载


211826fxv4qxz856xz6dxv.gif

上一篇:太阳浩劫 / Sunshine (2007) 4K蓝光版本下载
下一篇:偷天游戏 / The Thomas Crown Affair (1999) 4K蓝光版本下载
回复

使用道具 举报

0

主题

1353

帖子

3893

积分

中级会员

Rank: 4

积分
3893
发表于 7 天前 | 显示全部楼层
多发些资源啊
回复 支持 反对

使用道具 举报

2

主题

1267

帖子

3819

积分

4K家园VIP

Rank: 9Rank: 9Rank: 9

积分
3819
发表于 7 天前 | 显示全部楼层
什么东西啊
回复 支持 反对

使用道具 举报

1

主题

1287

帖子

3877

积分

4K家园VIP

Rank: 9Rank: 9Rank: 9

积分
3877
发表于 7 天前 | 显示全部楼层
广告位,,坐下看看
回复 支持 反对

使用道具 举报

2

主题

1388

帖子

4016

积分

中级会员

Rank: 4

积分
4016
发表于 7 天前 来自手机 | 显示全部楼层
站位支持
回复 支持 反对

使用道具 举报

1

主题

1272

帖子

3830

积分

4K家园VIP

Rank: 9Rank: 9Rank: 9

积分
3830
发表于 7 天前 来自手机 | 显示全部楼层
LZ帖子不给力,勉强给回复下吧
回复 支持 反对

使用道具 举报

您需要登录后才可以回帖 登录 | 立即注册

本版积分规则

精彩图文
Archiver|手机版|TAG|Sitemap|新帖|专题|联系我们:邮箱: 4kjia.com@gmail.com   

4k家园   ©2019