[4K电影] 我如何爱上黑帮成员 (2022) 4K高清版本下载

[复制链接]

1323

主题

1428

帖子

1万

积分

超级版主

Rank: 8Rank: 8

积分
11131
 楼主| 发表于 6 天前 | 显示全部楼层 |阅读模式
QQ图片20220110142121_副本.png

◎译  名 我如何爱上黑帮成员 / How I Fell in Love with a Gangster
◎片  名 Jak pokochalam gangstera
◎年  代 2022
◎产  地 波兰
◎类  别 剧情 / 犯罪
◎语  言 波兰语
◎上映日期 2022-01-12(波兰)
◎豆瓣评分 0/10 from 0 users
◎豆瓣链接 https://movie.douban.com/subject/35715950/
◎片  长 179分钟
◎导  演 Maciej Kawulski
◎主  演 杰尼斯·查比尔
                   皮奥特·赛尔沃斯
                   赛巴斯汀·法比杰斯基
                   安德烈·格拉博夫斯基
                   阿格涅兹卡·格罗乔斯卡

                   Edyta Herbus
                   克里斯提娜·杨达
                   Adrian Klos
                   安东尼·克里科夫斯基


◎简  介


  一名神秘女子讲述波兰历史上影响力最大的黑帮老大之一——尼科德姆·“尼科斯”·斯科塔卡克的崛起与覆亡,灵感来自真实故事
General
Complete name                  : E:\4K@电影\Jak.Pokochalam.Gangstera.2022.2160p.WEB-DL.DDP5.1.HEVC-EniaHD.mkv
Format                         : Matroska
Format version                 : Version 4
File size                      : 17.7 GiB
Duration                       : 3 h 5 min
Overall bit rate               : 13.7 Mb/s
Movie name                     : Jak pokochalam gangstera (2022) - EniaHD
Writing application            : mkvmerge v62.0.0 ('Apollo') 64-bit
Writing library                : libebml v1.4.2 + libmatroska v1.6.4
IsTruncated                    : Yes

Video
ID                             : 1
Format                         : HEVC
Format/Info                    : High Efficiency Video Coding
Format profile                 : Main 10@L5@Main
Codec ID                       : V_MPEGH/ISO/HEVC
Duration                       : 3 h 5 min
Bit rate                       : 11.5 Mb/s
Width                          : 3 840 pixels
Height                         : 2 160 pixels
Display aspect ratio           : 16:9
Frame rate mode                : Constant
Frame rate                     : 25.000 FPS
Color space                    : YUV
Chroma subsampling             : 4:2:0
Bit depth                      : 10 bits
Bits/(Pixel*Frame)             : 0.055
Stream size                    : 14.9 GiB (84%)
Default                        : Yes
Forced                         : No
Color range                    : Limited
Color primaries                : BT.709
Transfer characteristics       : BT.709
Matrix coefficients            : BT.709

Audio #1
ID                             : 2
Format                         : E-AC-3
Format/Info                    : Enhanced AC-3
Commercial name                : Dolby Digital Plus
Codec ID                       : A_EAC3
Duration                       : 3 h 5 min
Bit rate mode                  : Constant
Bit rate                       : 640 kb/s
Channel(s)                     : 6 channels
Channel layout                 : L R C LFE Ls Rs
Sampling rate                  : 48.0 kHz
Frame rate                     : 31.250 FPS (1536 SPF)
Compression mode               : Lossy
Stream size                    : 851 MiB (5%)
Language                       : Russian
Service kind                   : Complete Main
Default                        : Yes
Forced                         : No

Audio #2
ID                             : 3
Format                         : E-AC-3
Format/Info                    : Enhanced AC-3
Commercial name                : Dolby Digital Plus
Codec ID                       : A_EAC3
Duration                       : 3 h 5 min
Bit rate mode                  : Constant
Bit rate                       : 640 kb/s
Channel(s)                     : 6 channels
Channel layout                 : L R C LFE Ls Rs
Sampling rate                  : 48.0 kHz
Frame rate                     : 31.250 FPS (1536 SPF)
Compression mode               : Lossy
Stream size                    : 851 MiB (5%)
Language                       : Ukrainian
Service kind                   : Complete Main
Default                        : No
Forced                         : No

Audio #3
ID                             : 4
Format                         : E-AC-3
Format/Info                    : Enhanced AC-3
Commercial name                : Dolby Digital Plus
Codec ID                       : A_EAC3
Duration                       : 3 h 5 min
Bit rate mode                  : Constant
Bit rate                       : 640 kb/s
Channel(s)                     : 6 channels
Channel layout                 : L R C LFE Ls Rs
Sampling rate                  : 48.0 kHz
Frame rate                     : 31.250 FPS (1536 SPF)
Compression mode               : Lossy
Stream size                    : 851 MiB (5%)
Language                       : Polish
Service kind                   : Complete Main
Default                        : No
Forced                         : No

Text #1
ID                             : 5
Format                         : UTF-8
Codec ID                       : S_TEXT/UTF8
Codec ID/Info                  : UTF-8 Plain Text
Title                          : Forced
Language                       : Russian
Default                        : Yes
Forced                         : No

Text #2
ID                             : 6
Format                         : UTF-8
Codec ID                       : S_TEXT/UTF8
Codec ID/Info                  : UTF-8 Plain Text
Language                       : Russian
Default                        : No
Forced                         : No

Text #3
ID                             : 7
Format                         : UTF-8
Codec ID                       : S_TEXT/UTF8
Codec ID/Info                  : UTF-8 Plain Text
Title                          : Forced
Language                       : Ukrainian
Default                        : No
Forced                         : No

Text #4
ID                             : 8
Format                         : UTF-8
Codec ID                       : S_TEXT/UTF8
Codec ID/Info                  : UTF-8 Plain Text
Language                       : Ukrainian
Default                        : No
Forced                         : No

Text #5
ID                             : 9
Format                         : UTF-8
Codec ID                       : S_TEXT/UTF8
Codec ID/Info                  : UTF-8 Plain Text
Title                          : Forced
Language                       : Polish
Default                        : No
Forced                         : No

Text #6
ID                             : 10
Format                         : UTF-8
Codec ID                       : S_TEXT/UTF8
Codec ID/Info                  : UTF-8 Plain Text
Title                          : SDH
Language                       : Polish
Default                        : No
Forced                         : No

Text #7
ID                             : 11
Format                         : UTF-8
Codec ID                       : S_TEXT/UTF8
Codec ID/Info                  : UTF-8 Plain Text
Language                       : English
Default                        : No
Forced                         : No

Text #8
ID                             : 12
Format                         : UTF-8
Codec ID                       : S_TEXT/UTF8
Codec ID/Info                  : UTF-8 Plain Text
Title                          : SDH
Language                       : English
Default                        : No
Forced                         : No

Text #9
ID                             : 13
Format                         : UTF-8
Codec ID                       : S_TEXT/UTF8
Codec ID/Info                  : UTF-8 Plain Text
Language                       : German
Default                        : No
Forced                         : No

Text #10
ID                             : 14
Format                         : UTF-8
Codec ID                       : S_TEXT/UTF8
Codec ID/Info                  : UTF-8 Plain Text
Language                       : Hebrew
Default                        : No
Forced                         : No

Text #11
ID                             : 15
Format                         : UTF-8
Codec ID                       : S_TEXT/UTF8
Codec ID/Info                  : UTF-8 Plain Text
Language                       : Romanian
Default                        : No
Forced                         : No


迅雷下载资源速度为零或资源敏感被和谐时,推荐使用qBittorrent等下载软件,有条件的推荐115更好的下载软件!

下载地址

****此区域为收费内容****    需支付 9 金币后可查看立即购买




.

上一篇:普什帕:崛起-第1部分/Pushpa - The Rise: Part 1(2021) 4K高清版本下载
下一篇:挚爱家书 / Journal for Jordan (2021) 4K高清版本下载
回复

使用道具 举报

1

主题

1696

帖子

4696

积分

4K家园VIP

Rank: 9Rank: 9Rank: 9

积分
4696
发表于 6 天前 | 显示全部楼层
支持,赞一个
回复 支持 反对

使用道具 举报

1

主题

1637

帖子

4527

积分

4K家园VIP

Rank: 9Rank: 9Rank: 9

积分
4527
发表于 6 天前 | 显示全部楼层
打酱油的人拉,回复下赚取积分
回复 支持 反对

使用道具 举报

0

主题

237

帖子

1455

积分

注册会员

Rank: 2

积分
1455
发表于 6 天前 | 显示全部楼层
谢谢楼主分享
回复 支持 反对

使用道具 举报

62

主题

1559

帖子

4513

积分

4K家园VIP

Rank: 9Rank: 9Rank: 9

积分
4513
发表于 6 天前 | 显示全部楼层
4K电影下个试试
回复 支持 反对

使用道具 举报

2

主题

1317

帖子

3785

积分

4K家园VIP

Rank: 9Rank: 9Rank: 9

积分
3785
发表于 6 天前 | 显示全部楼层
锄禾日当午,发帖真辛苦。谁知坛中餐,帖帖皆辛苦!
回复 支持 反对

使用道具 举报

0

主题

1330

帖子

3840

积分

4K家园VIP

Rank: 9Rank: 9Rank: 9

积分
3840
发表于 6 天前 | 显示全部楼层
占坑编辑ing
回复 支持 反对

使用道具 举报

您需要登录后才可以回帖 登录 | 立即注册

本版积分规则

精彩图文
Archiver|手机版|TAG|Sitemap|新帖|专题|联系我们:邮箱: 4kjia.com@gmail.com   

4k家园   ©2019