[4K MV] 2021 TRI.BE - 你会跑吗(4K珍藏) [2160P/MP4/1.39GB]

[复制链接]

2764

主题

3122

帖子

2万

积分

超级版主

Rank: 8Rank: 8

积分
26176
 楼主| 发表于 2022-1-10 15:20:35 | 显示全部楼层 |阅读模式
本帖最后由 叽里呱啦 于 2022-1-22 15:52 编辑

TRI.BE- Would You Run [Master 2160].mp4_20220110_145311.688_副本.jpg TRI.BE- Would You Run [Master 2160].mp4_20220110_145337.384_副本.jpg TRI.BE- Would You Run [Master 2160].mp4_20220110_145346.744_副本.jpg TRI.BE- Would You Run [Master 2160].mp4_20220110_145401.040_副本.jpg TRI.BE- Would You Run [Master 2160].mp4_20220110_145444.584_副本.jpg TRI.BE- Would You Run [Master 2160].mp4_20220110_145451.928_副本.jpg TRI.BE- Would You Run [Master 2160].mp4_20220110_145558.856_副本.jpg TRI.BE- Would You Run [Master 2160].mp4_20220110_145613.456_副本.jpg TRI.BE- Would You Run [Master 2160].mp4_20220110_145625.656_副本.jpg TRI.BE- Would You Run [Master 2160].mp4_20220110_145644.520_副本.jpg

General
Complete name                  : E:\4K@电影 4K@MV\TRI.BE 4K\TRI.BE- Would You Run [Master 2160].mp4
Format                         : MPEG-4
Format profile                 : Base Media / Version 2
Codec ID                       : mp42 (mp42/mp41)
File size                      : 1.40 GiB
Duration                       : 3 min 58 s
Overall bit rate mode          : Variable
Overall bit rate               : 50.3 Mb/s
Encoded date                   : UTC 2021-10-04 15:32:00
Tagged date                    : UTC 2021-10-04 15:48:12
TIM                            : 00:00:00:07
TSC                            : 24000
TSZ                            : 1001

Video
ID                             : 1
Format                         : AVC
Format/Info                    : Advanced Video Codec
Format profile                 : Main@L5.1
Format settings                : CABAC / 4 Ref Frames
Format settings, CABAC         : Yes
Format settings, Reference fra : 4 frames
Codec ID                       : avc1
Codec ID/Info                  : Advanced Video Coding
Duration                       : 3 min 58 s
Bit rate mode                  : Constant
Bit rate                       : 50.0 Mb/s
Width                          : 3 840 pixels
Height                         : 2 160 pixels
Display aspect ratio           : 16:9
Frame rate mode                : Constant
Frame rate                     : 23.976 (24000/1001) FPS
Color space                    : YUV
Chroma subsampling             : 4:2:0
Bit depth                      : 8 bits
Scan type                      : Progressive
Bits/(Pixel*Frame)             : 0.251
Stream size                    : 1.39 GiB (99%)
Language                       : English
Encoded date                   : UTC 2021-10-04 15:32:09
Tagged date                    : UTC 2021-10-04 15:32:09
Color range                    : Limited
Color primaries                : BT.709
Transfer characteristics       : BT.709
Matrix coefficients            : BT.709
Codec configuration box        : avcC

Audio
ID                             : 2
Format                         : AAC LC
Format/Info                    : Advanced Audio Codec Low Complexity
Codec ID                       : mp4a-40-2
Duration                       : 3 min 58 s
Source duration                : 3 min 58 s
Bit rate mode                  : Variable
Bit rate                       : 317 kb/s
Maximum bit rate               : 458 kb/s
Channel(s)                     : 2 channels
Channel layout                 : L R
Sampling rate                  : 48.0 kHz
Frame rate                     : 46.875 FPS (1024 SPF)
Compression mode               : Lossy
Stream size                    : 9.02 MiB (1%)
Source stream size             : 9.02 MiB (1%)
Language                       : English
Encoded date                   : UTC 2021-10-04 15:32:04
Tagged date                    : UTC 2021-10-04 15:32:04

TRI.BE- Would You Run [Master 2160].mp4_20220110_145311.688_副本.jpg TRI.BE- Would You Run [Master 2160].mp4_20220110_145337.384_副本.jpg TRI.BE- Would You Run [Master 2160].mp4_20220110_145346.744_副本.jpg TRI.BE- Would You Run [Master 2160].mp4_20220110_145401.040_副本.jpg TRI.BE- Would You Run [Master 2160].mp4_20220110_145444.584_副本.jpg TRI.BE- Would You Run [Master 2160].mp4_20220110_145451.928_副本.jpg TRI.BE- Would You Run [Master 2160].mp4_20220110_145558.856_副本.jpg TRI.BE- Would You Run [Master 2160].mp4_20220110_145613.456_副本.jpg TRI.BE- Would You Run [Master 2160].mp4_20220110_145625.656_副本.jpg TRI.BE- Would You Run [Master 2160].mp4_20220110_145644.520_副本.jpg
提供2010-2022年[4K、8K、16K(25-120fps)]高品质MV、演示片、测试片等珍藏版视频硬盘有偿拷贝工作,4K MV、演示片每天更新中,需要的联系本楼主!

网盘下载失效不补:链接: https://pan.baidu.com/s/1xJY9HyNmtb1Dx9DWKis5bg?pwd=vi2i 提取码:
****此区域为收费内容****    需支付 50 金币后可查看立即购买





.

上一篇:[4K MV] 2021 IU - 草莓月亮 4k [2160P/MP4/807MB]
下一篇:[4K 现场] 2021 ITZY - LOCO (4K珍藏高码率版) [2160P/MP4/1.01GB]
回复

使用道具 举报

53

主题

1527

帖子

4421

积分

4K家园VIP

Rank: 9Rank: 9Rank: 9

积分
4421
发表于 2022-1-10 15:20:40 来自手机 | 显示全部楼层
试试先,好用再说
回复 支持 反对

使用道具 举报

2

主题

233

帖子

3071

积分

中级会员

Rank: 4

积分
3071
发表于 2022-1-10 16:16:33 | 显示全部楼层
谢谢                  
回复 支持 反对

使用道具 举报

1

主题

1365

帖子

4113

积分

4K家园VIP

Rank: 9Rank: 9Rank: 9

积分
4113
发表于 2022-1-10 19:37:11 | 显示全部楼层
沙发???
回复 支持 反对

使用道具 举报

2

主题

1468

帖子

4208

积分

4K家园VIP

Rank: 9Rank: 9Rank: 9

积分
4208
发表于 2022-1-11 03:01:35 来自手机 | 显示全部楼层
还有没有别的资源,多分享些
回复 支持 反对

使用道具 举报

0

主题

5

帖子

21

积分

新手上路

Rank: 1

积分
21
发表于 2022-1-11 10:55:53 | 显示全部楼层
好东西,感谢分享
回复 支持 反对

使用道具 举报

0

主题

1347

帖子

4051

积分

4K家园VIP

Rank: 9Rank: 9Rank: 9

积分
4051
发表于 2022-1-11 17:24:02 | 显示全部楼层
为了三千积分!
回复 支持 反对

使用道具 举报

0

主题

1163

帖子

3503

积分

4K家园VIP

Rank: 9Rank: 9Rank: 9

积分
3503
发表于 2022-1-11 19:27:39 | 显示全部楼层
发发呆,回回帖,工作结束~
回复 支持 反对

使用道具 举报

0

主题

1

帖子

27

积分

新手上路

Rank: 1

积分
27
发表于 2022-1-12 10:14:24 | 显示全部楼层
画质很好,支持了!
回复 支持 反对

使用道具 举报

0

主题

3

帖子

202

积分

4K家园VIP

Rank: 9Rank: 9Rank: 9

积分
202
发表于 2022-1-12 17:15:45 | 显示全部楼层
这么快就过期了?
回复 支持 反对

使用道具 举报

您需要登录后才可以回帖 登录 | 立即注册

本版积分规则

精彩图文
Archiver|手机版|TAG|Sitemap|新帖|专题|联系我们:邮箱: 4kjia.com@gmail.com   

4k家园   ©2019