嗜血法医:杀魔新生 (2021) / 第一季全10集/4K高清版本下载

[复制链接]

66

主题

79

帖子

763

积分

版主

Rank: 7Rank: 7Rank: 7

积分
763
 楼主| 发表于 6 天前 | 显示全部楼层 |阅读模式

p2689506331_副本.jpg

◎译  名 嗜血法医:杀魔新生 第一季/嗜血法医:新血债/嗜血法医限定剧/嗜血法医重启版
◎片  名 Dexter: New Blood Season 1
◎年  代 2021
◎产  地 美国
◎类  别 剧情/悬疑/惊悚/犯罪
◎语  言 英语
◎上映日期 2021-11-07(美国)
◎IMDb评分  8.7/10 from 45494 users
◎IMDb链接  https://www.imdb.com/title/tt14164730/
◎豆瓣评分 0/10 from 0 users
◎豆瓣链接 https://douban.com/subject/35225519/
◎集  数 10
◎导  演 马科斯·西恩加 Marcos Siega
◎编  剧 克莱德·菲利普斯 Clyde Phillips
◎主  演 迈克尔·C·豪尔 Michael C. Hall
       克兰西·布朗 Clancy Brown
       约翰·利思戈 John Lithgow
       杰米·钟 Jamie Chung
       詹妮弗·卡朋特 Jennifer Carpenter
       茱莉亚·琼斯 Julia Jones
       约翰尼·斯奎娅 Johnny Sequoyah
       杰克·阿尔科特 Jack Alcott
       Alano Miller Alano Miller
       迈克尔·西里尔·克赖顿 Michael Cyril Creighton
       大卫·马吉道夫 David Magidoff
       史蒂文·罗伯特森 Steven Robertson
        Kevin Pasdon



◎简  介


  Showtime宣布给《嗜血法医 Dexter》预定10集限定剧!这部改编自小说系列的剧由Michael C. Hall主演,过去共8季,讲述男主Dexter Morgan在迈阿密警局中当血液分析师,但同时他亦是个专门找罪犯下手的连环杀人狂。

  限定剧预定21年初开始拍摄,同年秋档播出,主演Michael C. Hall及制作人Clyde Phillips皆会回归。目前未有限定剧简介,而在剧终主角伪造自己的死亡,然后独自一人当起伐木工人。

General
Complete name                  : E:\4K@美剧\Dexter.New.Blood.S01E01.Cold.Snap.2160p.SHO.WEB-DL.DDP5.1.HDR.x265-NTb.mkv
Format                         : Matroska
Format version                 : Version 4
File size                      : 6.14 GiB
Duration                       : 57 min 56 s
Overall bit rate               : 15.2 Mb/s
Writing application            : mkvmerge v58.0.0 ('Supper's Ready') 64-bit
Writing library                : libebml v1.4.2 + libmatroska v1.6.4

Video
ID                             : 1
Format                         : HEVC
Format/Info                    : High Efficiency Video Coding
Format profile                 : Main 10@L5@Main
HDR format                     : SMPTE ST 2086, HDR10 compatible
Codec ID                       : V_MPEGH/ISO/HEVC
Duration                       : 57 min 11 s
Bit rate                       : 14.7 Mb/s
Width                          : 3 840 pixels
Height                         : 2 160 pixels
Display aspect ratio           : 16:9
Frame rate mode                : Constant
Frame rate                     : 23.976 (24000/1001) FPS
Color space                    : YUV
Chroma subsampling             : 4:2:0
Bit depth                      : 10 bits
Bits/(Pixel*Frame)             : 0.074
Stream size                    : 5.88 GiB (96%)
Writing library                : x265 3.4hy:[Linux][GCC 7.5.0][64 bit] 10bit
Encoding settings              : cpuid=1111039 / frame-threads=6 / no-wpp / no-pmode / no-pme / no-psnr / no-ssim / log-level=2 / input-csp=1 / input-res=3840x2160 / interlace=0 / total-frames=0 / level-idc=0 / high-tier=1 / uhd-bd=0 / ref=4 / no-allow-non-conformance / repeat-headers / annexb / aud / hrd / info / hash=0 / no-temporal-layers / no-open-gop / min-keyint=48 / keyint=48 / gop-lookahead=0 / bframes=4 / b-adapt=2 / b-pyramid / bframe-bias=0 / rc-lookahead=48 / lookahead-slices=4 / scenecut=0 / hist-scenecut=0 / radl=0 / no-splice / no-intra-refresh / ctu=64 / min-cu-size=8 / rect / no-amp / max-tu-size=32 / tu-inter-depth=1 / tu-intra-depth=1 / limit-tu=0 / rdoq-level=2 / dynamic-rd=0.00 / no-ssim-rd / signhide / no-tskip / nr-intra=100 / nr-inter=400 / no-constrained-intra / strong-intra-smoothing / max-merge=3 / limit-refs=3 / limit-modes / me=3 / subme=3 / merange=57 / temporal-mvp / no-frame-dup / no-hme / weightp / no-weightb / no-analyze-src-pics / deblock=0:0 / sao / no-sao-non-deblock / rd=4 / selective-sao=4 / no-early-skip / rskip / no-fast-intra / no-tskip-fast / no-cu-lossless / no-b-intra / no-splitrd-skip / rdpenalty=0 / psy-rd=0.00 / psy-rdoq=1.00 / no-rd-refine / no-lossless / cbqpoffs=0 / crqpoffs=3 / rc=abr / bitrate=15000 / qcomp=0.60 / qpstep=4 / stats-write=0 / stats-read=2 / cplxblur=20.0 / qblur=0.5 / vbv-maxrate=18000 / vbv-bufsize=12000 / vbv-init=0.6 / vbv-end=0.6 / vbv-end-fr-adj=0.0 / ipratio=1.40 / pbratio=1.30 / aq-mode=2 / aq-strength=1.00 / cutree / zone-count=0 / no-strict-cbr / qg-size=32 / no-rc-grain / qpmax=69 / qpmin=0 / no-const-vbv / sar=1 / overscan=0 / videoformat=5 / range=0 / colorprim=9 / transfer=16 / colormatrix=9 / chromaloc=0 / display-window=0 / master-display=G(13250,34500)B(7500,3000)R(34000,16000)WP(15635,16450)L(10000000,1) / cll=0,0 / min-luma=0 / max-luma=1023 / log2-max-poc-lsb=8 / vui-timing-info / vui-hrd-info / no-concatenation / slices=1 / no-opt-qp-pps / no-opt-ref-list-length-pps / no-multi-pass-opt-rps / scenecut-bias=0.05 / hist-threshold=0.01 / no-opt-cu-delta-qp / no-aq-motion / hdr10 / no-hdr10-opt / no-dhdr10-opt / no-idr-recovery-sei / analysis-reuse-level=0 / analysis-save-reuse-level=0 / analysis-load-reuse-level=0 / scale-factor=0 / refine-intra=0 / refine-inter=0 / refine-mv=1 / refine-ctu-distortion=0 / no-limit-sao / ctu-info=0 / no-lowpass-dct / refine-analysis-type=0 / copy-pic=1 / max-ausize-factor=1.0 / no-dynamic-refine / no-single-sei / no-hevc-aq / no-svt / no-field / qp-adaptation-range=1.00 / no-scenecut-aware-qpconformance-window-offsets / right=0 / bottom=0 / decoder-max-rate=0
Default                        : Yes
Forced                         : No
Color range                    : Limited
Color primaries                : BT.2020
Transfer characteristics       : PQ
Matrix coefficients            : BT.2020 non-constant
Mastering display color primar : Display P3
Mastering display luminance    : min: 0.0001 cd/m2, max: 1000 cd/m2

Audio
ID                             : 2
Format                         : E-AC-3
Format/Info                    : Enhanced AC-3
Commercial name                : Dolby Digital Plus
Codec ID                       : A_EAC3
Duration                       : 57 min 56 s
Bit rate mode                  : Constant
Bit rate                       : 640 kb/s
Channel(s)                     : 6 channels
Channel layout                 : L R C LFE Ls Rs
Sampling rate                  : 48.0 kHz
Frame rate                     : 31.250 FPS (1536 SPF)
Compression mode               : Lossy
Delay relative to video        : 18 ms
Stream size                    : 265 MiB (4%)
Language                       : English
Service kind                   : Complete Main
Default                        : Yes
Forced                         : No

Text #1
ID                             : 3
Format                         : UTF-8
Codec ID                       : S_TEXT/UTF8
Codec ID/Info                  : UTF-8 Plain Text
Duration                       : 55 min 36 s
Bit rate                       : 53 b/s
Count of elements              : 801
Stream size                    : 21.8 KiB (0%)
Language                       : English
Default                        : No
Forced                         : No

Text #2
ID                             : 4
Format                         : UTF-8
Codec ID                       : S_TEXT/UTF8
Codec ID/Info                  : UTF-8 Plain Text
Duration                       : 56 min 52 s
Bit rate                       : 66 b/s
Count of elements              : 1119
Stream size                    : 27.6 KiB (0%)
Title                          : SDH
Language                       : English
Default                        : No
Forced                         : No

Menu
00:55:53.000                   : Credits


下载地址

游客,如果您要查看本帖隐藏内容请回复

游客,如果您要查看本帖隐藏内容请回复

游客,如果您要查看本帖隐藏内容请回复

游客,如果您要查看本帖隐藏内容请回复




.

上一篇:时光之轮 (内嵌简繁中字)(2021) / 第一季全8集/4K高清版本下载
回复

使用道具 举报

1

主题

1389

帖子

4009

积分

4K家园VIP

Rank: 9Rank: 9Rank: 9

积分
4009
发表于 6 天前 | 显示全部楼层
边撸边过
回复 支持 反对

使用道具 举报

66

主题

79

帖子

763

积分

版主

Rank: 7Rank: 7Rank: 7

积分
763
 楼主| 发表于 6 天前 | 显示全部楼层
本帖最后由 美剧小虾 于 2022-1-10 20:38 编辑

Dexter.New.Blood.S01E01.Cold.Snap.2160p.SHO.WEB-DL.DDP5.1.HDR.x265-NTb.mkv_20220.jpg Dexter.New.Blood.S01E01.Cold.Snap.2160p.SHO.WEB-DL.DDP5.1.HDR.x265-NTb.mkv_20220.jpg Dexter.New.Blood.S01E01.Cold.Snap.2160p.SHO.WEB-DL.DDP5.1.HDR.x265-NTb.mkv_20220.jpg Dexter.New.Blood.S01E01.Cold.Snap.2160p.SHO.WEB-DL.DDP5.1.HDR.x265-NTb.mkv_20220.jpg Dexter.New.Blood.S01E01.Cold.Snap.2160p.SHO.WEB-DL.DDP5.1.HDR.x265-NTb.mkv_20220.jpg Dexter.New.Blood.S01E01.Cold.Snap.2160p.SHO.WEB-DL.DDP5.1.HDR.x265-NTb.mkv_20220.jpg
回复 支持 反对

使用道具 举报

0

主题

1285

帖子

3875

积分

4K家园VIP

Rank: 9Rank: 9Rank: 9

积分
3875
发表于 6 天前 | 显示全部楼层
看起来不错
回复 支持 反对

使用道具 举报

44

主题

1437

帖子

4157

积分

4K家园VIP

Rank: 9Rank: 9Rank: 9

积分
4157
发表于 6 天前 | 显示全部楼层
垃圾内容,路过为证。
回复 支持 反对

使用道具 举报

0

主题

1534

帖子

4202

积分

4K家园VIP

Rank: 9Rank: 9Rank: 9

积分
4202
发表于 5 天前 | 显示全部楼层
正好需要啊
回复 支持 反对

使用道具 举报

40

主题

1468

帖子

4166

积分

4K家园VIP

Rank: 9Rank: 9Rank: 9

积分
4166
发表于 5 天前 来自手机 | 显示全部楼层
啥玩应呀
回复 支持 反对

使用道具 举报

0

主题

3

帖子

12

积分

新手上路

Rank: 1

积分
12
发表于 5 天前 | 显示全部楼层
hhhhhhhhhhhhhhhhhhhhhhhhhhhhhhhhhh
回复 支持 反对

使用道具 举报

您需要登录后才可以回帖 登录 | 立即注册

本版积分规则

精彩图文
Archiver|手机版|TAG|Sitemap|新帖|专题|联系我们:邮箱: 4kjia.com@gmail.com   

4k家园   ©2019