[4K UHD 蓝光原盘] 时间机器 / The Time Machine (2002) 4K蓝光版本下载

[复制链接]

1310

主题

1377

帖子

1万

积分

超级版主

Rank: 8Rank: 8

积分
15370
 楼主| 发表于 5 天前 | 显示全部楼层 |阅读模式
本帖最后由 没完没了 于 2022-1-11 12:23 编辑

QQ图片20220111102742_副本.png

◎译  名 时间机器/Máquina del tiempo, La/时光凶间/时光机器
◎片  名 The Time Machine
◎年  代 2002
◎产  地 美国
◎类  别 动作 / 科幻 / 冒险
◎语  言 英语
◎上映日期 2002-03-08(美国)
◎IMDb评分  6.0/10 from 122775 users
◎IMDb链接  https://www.imdb.com/title/tt0268695/
◎豆瓣评分 7.1/10 from 22674 users
◎豆瓣链接 https://movie.douban.com/subject/1306609/
◎片  长 96 分钟
◎导  演 西蒙·威尔斯 Simon Wells
◎编  剧 大卫·邓肯 David Duncan / 赫伯特·乔治·威尔斯 H.G. Wells / 约翰·洛根 John Logan
◎主  演 盖·皮尔斯 Guy Pearce
       萨曼莎·穆巴 Samantha Mumba
       马克·阿蒂 Mark Addy
       西耶娜·盖尔利 Sienna Guillory
       Edward Conna Edward Conna
       亚历克斯·麦迪逊 Alex Madison
       艾伦·扬 Alan Young
       杰瑞米·艾恩斯 Jeremy Irons
       约翰·科耶马 John Koyama
       小泽吉郎 Yoshio Iizuka
       道格·琼斯 Doug Jones
       Clint Lilley Clint Lilley
       幸田宏 Hiro Koda
       乔伊·阿那亚 Joey Anaya
       杨希·亚瑞斯 Yancey Arias
       戴安娜·李·伊诺桑托 Diana Lee Inosanto
       凡尼莎·威尔拉 Vanessa Viola
       菲丽达·劳 Phyllida Law
       Michael Chaturantabut Michael Chaturantabut
       Omero Mumba Omero Mumba
       马克·库布尔 Mark Kubr
       Jacob Chambers Jacob Chambers
       理查德·赛特伦 Richard Cetrone
       Aaron Patrick Freeman
       Paul Oliver
       佩特拉·斯普雷彻 Petra Sprecher
       杰罗米菲茨杰罗德 Jeremy Fitzgerald
       Efia Pearson Efia Pearson
       琼·瓦勒拉 Jon Valera
       乔什·斯坦伯 Josh Stamberg
       Kevin McTurk Kevin McTurk
       Chona Jason Chona Jason
       格雷迪·霍德尔 Grady Holder
       布莱恩·法里戴 Bryan Friday
       奥兰多·琼斯 Orlando Jones
       敏迪·克里斯特 Myndy Crist
       乔纳森·埃斯比奥 Jonathan Eusebio



◎简  介

  亚历山大(盖·皮尔斯 Guy Pearce 饰)博士是一位狂热的科学爱好者,他一直想证明时间旅行是可行的,并将全部的精力都投放到了时间机器的研究中。可是一天,未婚妻的意外离世让他悲愤不已,并加紧了时间机器的研制,希望能重返过去,拯救未婚妻的生命。时光机研制成功,亚历山大成功穿越到了过去,亲眼目睹了未婚妻的意外事故。可是无论他回到过去多少次,都没有办法救回未婚妻,未婚妻都会因为各种意外事故身亡。问题,到底出在了什么地方?亚历山大为了解开这个谜,将寻找答案的希望放在了过去。不停的穿越,不停的前往未来寻找答案……直到八十万年后的地球,亚历山大发现,人类已经进化到跟现在完全不一样。而那时的地球上分为了两个派系爱好和平的伊莱人和好战的莫洛人,为了帮助伊莱人摆脱莫洛人的统治,亚历山大不惜毁掉时光机,而他也发现了最终的秘密。

◎获奖情况

  第75届奥斯卡金像奖 ?(2003)
  最佳化妆(提名) 小约翰·M·艾略特?/?巴巴拉·洛伦兹
General
Complete name                  : E:\The.Time.Machine.2002.AMZN.WEBRip.2160p.UHD.SDR.Eng.DTS-HD.HRA.DD5.1.gerald99
Format                         : Matroska
Format version                 : Version 4
File size                      : 20.4 GiB
Duration                       : 1 h 35 min
Overall bit rate               : 30.5 Mb/s
Movie name                     : The Time Machine
Encoded date                   : UTC 2021-12-31 15:15:45
Writing application            : mkvmerge v63.0.0 ('Everything') 64-bit
Writing library                : libebml v1.4.2 + libmatroska v1.6.4
Attachments                    : poster.jpg

Video
ID                             : 1
Format                         : HEVC
Format/Info                    : High Efficiency Video Coding
Format profile                 : Main 10@L5@High
Codec ID                       : V_MPEGH/ISO/HEVC
Duration                       : 1 h 35 min
Bit rate                       : 25.4 Mb/s
Width                          : 3 840 pixels
Height                         : 2 160 pixels
Display aspect ratio           : 16:9
Frame rate mode                : Constant
Frame rate                     : 23.976 (24000/1001) FPS
Color space                    : YUV
Chroma subsampling             : 4:2:0
Bit depth                      : 10 bits
Bits/(Pixel*Frame)             : 0.128
Stream size                    : 17.0 GiB (83%)
Title                          : The Time Machine
Default                        : Yes
Forced                         : No
Color range                    : Limited
Color primaries                : BT.709
Transfer characteristics       : BT.709
Matrix coefficients            : BT.709

Audio #1
ID                             : 2
Format                         : DTS XBR
Format/Info                    : Digital Theater Systems
Commercial name                : DTS-HD High Resolution Audio
Codec ID                       : A_DTS
Duration                       : 1 h 35 min
Bit rate mode                  : Constant
Bit rate                       : 3 840 kb/s
Channel(s)                     : 6 channels
Channel layout                 : C L R Ls Rs LFE
Sampling rate                  : 48.0 kHz
Frame rate                     : 93.750 FPS (512 SPF)
Bit depth                      : 24 bits
Compression mode               : Lossy
Stream size                    : 2.57 GiB (13%)
Title                          : Digital Theater Systems High Res Master Audio 5.1
Language                       : English
Default                        : Yes
Forced                         : No

Audio #2
ID                             : 3
Format                         : AC-3
Format/Info                    : Audio Coding 3
Commercial name                : Dolby Digital
Codec ID                       : A_AC3
Duration                       : 1 h 35 min
Bit rate mode                  : Constant
Bit rate                       : 640 kb/s
Channel(s)                     : 6 channels
Channel layout                 : L R C LFE Ls Rs
Sampling rate                  : 48.0 kHz
Frame rate                     : 31.250 FPS (1536 SPF)
Compression mode               : Lossy
Stream size                    : 438 MiB (2%)
Title                          : Dolby Digital 5.1
Language                       : English
Service kind                   : Complete Main
Default                        : Yes
Forced                         : No

Text #1
ID                             : 4
Format                         : UTF-8
Codec ID                       : S_TEXT/UTF8
Codec ID/Info                  : UTF-8 Plain Text
Language                       : English
Default                        : No
Forced                         : No

Text #2
ID                             : 5
Format                         : UTF-8
Codec ID                       : S_TEXT/UTF8
Codec ID/Info                  : UTF-8 Plain Text
Title                          : SDH
Language                       : English
Default                        : No
Forced                         : No

Menu
00:00:00.000                   : en:Chapter 01
00:03:33.118                   : en:Chapter 02
00:07:26.201                   : en:Chapter 03
00:12:00.119                   : en:Chapter 04
00:18:13.644                   : en:Chapter 05
00:24:55.308                   : en:Chapter 06
00:30:07.587                   : en:Chapter 07
00:36:20.175                   : en:Chapter 08
00:46:07.054                   : en:Chapter 09
00:53:21.902                   : en:Chapter 10
01:01:23.780                   : en:Chapter 11
01:08:10.210                   : en:Chapter 12
01:17:32.881                   : en:Chapter 13
01:22:34.109                   : en:Chapter 14
01:26:24.533                   : en:Chapter 15
01:29:53.341                   : en:Chapter 16
01:35:39.988                   : en:Chapter 17
4K蓝光资源,新种推荐使用qBittorrent、uTorrent等下载软件,有条件的推荐115更好的下载软件!

时间机器(20.60 GB)The.Time.Machine.2002.AMZN.WEBRip.2160p.UHD.SDR.Eng.DTS-HD.HRA.DD5.1.gerald99
****此区域为收费内容****    需支付 30 金币后可查看立即购买



1心,爱心.gif

上一篇:偷天游戏 / The Thomas Crown Affair (1999) 4K蓝光版本下载
下一篇:月光光心慌慌:杀戮 (2021) 4K蓝光[原盘+REMUX]版本下载
回复

使用道具 举报

1310

主题

1377

帖子

1万

积分

超级版主

Rank: 8Rank: 8

积分
15370
 楼主| 发表于 5 天前 | 显示全部楼层
The Time Machine.mkv_20220111_120104.542.jpg The Time Machine.mkv_20220111_120210.230.jpg The Time Machine.mkv_20220111_120217.174.jpg The Time Machine.mkv_20220111_120239.726.jpg The Time Machine.mkv_20220111_121846.880.jpg The Time Machine.mkv_20220111_122012.807.jpg The Time Machine.mkv_20220111_122042.263.jpg The Time Machine.mkv_20220111_122143.791.jpg
回复 支持 反对

使用道具 举报

49

主题

1432

帖子

4122

积分

4K家园VIP

Rank: 9Rank: 9Rank: 9

积分
4122
发表于 5 天前 | 显示全部楼层
感谢楼主的分享,还是阔以滴
回复 支持 反对

使用道具 举报

4

主题

1272

帖子

3836

积分

4K家园VIP

Rank: 9Rank: 9Rank: 9

积分
3836
发表于 5 天前 来自手机 | 显示全部楼层
我也来顶一下..
回复 支持 反对

使用道具 举报

1

主题

1308

帖子

3944

积分

4K家园VIP

Rank: 9Rank: 9Rank: 9

积分
3944
发表于 5 天前 | 显示全部楼层
秀起来~
回复 支持 反对

使用道具 举报

0

主题

7236

帖子

1万

积分

4K家园VIP

Rank: 9Rank: 9Rank: 9

积分
16568
发表于 5 天前 | 显示全部楼层
太好啦&萬分感謝版主的無私發佈分享%
回复 支持 反对

使用道具 举报

48

主题

1514

帖子

4366

积分

4K家园VIP

Rank: 9Rank: 9Rank: 9

积分
4366
发表于 5 天前 | 显示全部楼层
正好需要啊
回复 支持 反对

使用道具 举报

5

主题

1460

帖子

4224

积分

4K家园VIP

Rank: 9Rank: 9Rank: 9

积分
4224
发表于 5 天前 来自手机 | 显示全部楼层
正好需要啊
回复 支持 反对

使用道具 举报

0

主题

237

帖子

1455

积分

注册会员

Rank: 2

积分
1455
发表于 5 天前 | 显示全部楼层
感谢楼主的分享
回复 支持 反对

使用道具 举报

您需要登录后才可以回帖 登录 | 立即注册

本版积分规则

精彩图文
Archiver|手机版|TAG|Sitemap|新帖|专题|联系我们:邮箱: 4kjia.com@gmail.com   

4k家园   ©2019