[4K电影] 挚爱家书 / Journal for Jordan (2021) 4K高清版本下载

[复制链接]

1339

主题

1444

帖子

1万

积分

超级版主

Rank: 8Rank: 8

积分
11232
 楼主| 发表于 2022-1-11 20:24:20 | 显示全部楼层 |阅读模式
QQ图片20220111201619_副本.png

◎译  名 挚爱家书 / 乔丹日志 / A Journal For Jordan
◎片  名 Journal for Jordan
◎年  代 2021
◎产  地 美国
◎类  别 剧情
◎语  言 英语
◎上映日期 2021-12-25(美国)
◎IMDb评分  5.7/10 from 395 users
◎IMDb链接  https://www.imdb.com/title/tt0995854/
◎豆瓣评分 0/10 from 0 users
◎豆瓣链接 https://movie.douban.com/subject/3692646/
◎片  长 131分钟
◎导  演 丹泽尔·华盛顿
◎编  剧 维吉尔·威廉斯 / 查尔斯·门罗·金 / 达娜·卡内迪
◎主  演 迈克尔·B·乔丹
                   香缇·亚当斯
                   哈隆·克里斯蒂安
                   罗伯特·维斯多姆
                   塔马拉·图尼
                   苏珊·波尔法
                   瓦妮莎·阿斯皮利亚加
                   桃乐丝·麦卡锡
                   玛丽索尔·科雷亚
                   肖恩·里亚尔
                   玛昌特·戴维斯



◎简  介

        影片改编自小说《对不起,来不及陪你长大》,讲述了普利策获奖记者戴娜·坎纳迪(Dana Canedy)和军官查尔斯·门罗·金(Charles Monroe King)的真实爱情故事。查尔斯在海外服役期间为防止在战事中阵亡,给他们刚刚出生的儿子乔丹写下了一封家书,旨在告诉他在没有父亲的成长过程中如何过上体面的生活,同时也包含了深刻的人生感悟,以及一个父亲对他从未谋面儿子的忠告和祈祷。
General
Complete name                  : H:\4K@电影A.Journal.For.Jordan.2021.2160p.WEB-DL.x265.10bit.HDR.DDP5.1-NOGRP
Format                         : Matroska
Format version                 : Version 4
File size                      : 13.5 GiB
Duration                       : 2 h 11 min
Overall bit rate               : 14.7 Mb/s
Encoded date                   : UTC 2022-01-11 08:41:01
Writing application            : mkvmerge v63.0.0 ('Everything') 64-bit
Writing library                : libebml v1.4.2 + libmatroska v1.6.4
IsTruncated                    : Yes

Video
ID                             : 1
Format                         : HEVC
Format/Info                    : High Efficiency Video Coding
Format profile                 : Main 10@L5@High
HDR format                     : SMPTE ST 2086, HDR10 compatible
Codec ID                       : V_MPEGH/ISO/HEVC
Duration                       : 2 h 11 min
Bit rate                       : 13.8 Mb/s
Width                          : 3 840 pixels
Height                         : 1 600 pixels
Display aspect ratio           : 2.40:1
Frame rate mode                : Constant
Frame rate                     : 23.976 (24000/1001) FPS
Color space                    : YUV
Chroma subsampling             : 4:2:0 (Type 2)
Bit depth                      : 10 bits
Bits/(Pixel*Frame)             : 0.094
Stream size                    : 12.7 GiB (94%)
Default                        : Yes
Forced                         : No
Color range                    : Limited
Color primaries                : BT.2020
Transfer characteristics       : PQ
Matrix coefficients            : BT.2020 non-constant
Mastering display color primar : BT.2020
Mastering display luminance    : min: 0.0050 cd/m2, max: 1000 cd/m2
Maximum Content Light Level    : 1100 cd/m2
Maximum Frame-Average Light Le : 381 cd/m2

Audio
ID                             : 2
Format                         : E-AC-3
Format/Info                    : Enhanced AC-3
Commercial name                : Dolby Digital Plus
Codec ID                       : A_EAC3
Duration                       : 2 h 11 min
Bit rate mode                  : Constant
Bit rate                       : 640 kb/s
Channel(s)                     : 6 channels
Channel layout                 : L R C LFE Ls Rs
Sampling rate                  : 48.0 kHz
Frame rate                     : 31.250 FPS (1536 SPF)
Compression mode               : Lossy
Stream size                    : 601 MiB (4%)
Title                          : English
Language                       : English
Service kind                   : Complete Main
Default                        : No
Forced                         : No

Text #1
ID                             : 3
Format                         : UTF-8
Codec ID                       : S_TEXT/UTF8
Codec ID/Info                  : UTF-8 Plain Text
Title                          : English
Language                       : English
Default                        : Yes
Forced                         : No

Text #2
ID                             : 4
Format                         : UTF-8
Codec ID                       : S_TEXT/UTF8
Codec ID/Info                  : UTF-8 Plain Text
Title                          : English [SDH]
Language                       : English
Default                        : No
Forced                         : No

Text #3
ID                             : 5
Format                         : UTF-8
Codec ID                       : S_TEXT/UTF8
Codec ID/Info                  : UTF-8 Plain Text
Title                          : French
Language                       : French
Default                        : No
Forced                         : No


迅雷下载资源速度为零或资源敏感被和谐时,推荐使用qBittorrent等下载软件,有条件的推荐115更好的下载软件!

下载地址:


游客,如果您要查看本帖隐藏内容请回复

游客,如果您要查看本帖隐藏内容请回复

游客,如果您要查看本帖隐藏内容请回复

游客,如果您要查看本帖隐藏内容请回复



.

上一篇:我如何爱上黑帮成员 (2022) 4K高清版本下载
下一篇:永恒族/永恒神族(外挂简繁中字)/Eternals (2021) 4K高清版本下载
回复

使用道具 举报

0

主题

1415

帖子

4057

积分

4K家园VIP

Rank: 9Rank: 9Rank: 9

积分
4057
发表于 2022-1-11 20:24:24 来自手机 | 显示全部楼层
这么强,支持楼主,佩服
回复 支持 反对

使用道具 举报

0

主题

7280

帖子

1万

积分

4K家园VIP

Rank: 9Rank: 9Rank: 9

积分
16651
发表于 2022-1-11 21:15:22 | 显示全部楼层
太好啦&萬分感謝版主的無私發佈分享%
回复 支持 反对

使用道具 举报

55

主题

1494

帖子

4314

积分

4K家园VIP

Rank: 9Rank: 9Rank: 9

积分
4314
发表于 2022-1-11 22:42:33 | 显示全部楼层
我是个凑数的。。。
回复 支持 反对

使用道具 举报

50

主题

1420

帖子

4070

积分

4K家园VIP

Rank: 9Rank: 9Rank: 9

积分
4070
发表于 2022-1-11 23:05:59 | 显示全部楼层
占坑编辑ing
回复 支持 反对

使用道具 举报

2

主题

1128

帖子

3402

积分

4K家园VIP

Rank: 9Rank: 9Rank: 9

积分
3402
发表于 2022-1-11 23:22:05 来自手机 | 显示全部楼层
前排,哇咔咔
回复 支持 反对

使用道具 举报

44

主题

1437

帖子

4157

积分

4K家园VIP

Rank: 9Rank: 9Rank: 9

积分
4157
发表于 2022-1-11 23:40:37 来自手机 | 显示全部楼层
为了三千积分!
回复 支持 反对

使用道具 举报

您需要登录后才可以回帖 登录 | 立即注册

本版积分规则

精彩图文
Archiver|手机版|TAG|Sitemap|新帖|专题|联系我们:邮箱: 4kjia.com@gmail.com   

4k家园   ©2019