[4K电影] 永恒族/永恒神族(外挂简繁中字)/Eternals (2021) 4K高清版本下载

  [复制链接]

1323

主题

1428

帖子

1万

积分

超级版主

Rank: 8Rank: 8

积分
11131
 楼主| 发表于 4 天前 | 显示全部楼层 |阅读模式
本帖最后由 最爱4K哟 于 2022-1-13 10:27 编辑

QQ图片20220112112229_副本.png

◎译  名 永恒族/The Eternals/永恒神族
◎片  名 Eternals
◎年  代 2021
◎产  地 英国,美国
◎类  别 动作 / 科幻 / 冒险
◎语  言 英语
◎上映日期 2021-11-05(美国)
◎IMDb评分  6.8/10 from 130184 users
◎IMDb链接  https://www.imdb.com/title/tt9032400/
◎豆瓣评分 6.7/10 from 10203 users
◎豆瓣链接 https://movie.douban.com/subject/30223888/
◎片  长 157分钟
◎导  演 赵婷 Chloé Zhao
◎编  剧 赵婷 Chloé Zhao / 帕特里克·伯利 Patrick Burleigh / 瑞恩·弗雷波 Ryan Firpo / 马修·弗雷波 Matthew K. Firpo / 杰克·科比 Jack Kirby
◎主  演 安吉丽娜·朱莉 Angelina Jolie
      嘉玛·陈 Gemma Chan
      理查德·麦登 Richard Madden
      萨尔玛·海耶克 Salma Hayek
      基特·哈灵顿 Kit Harington
      库梅尔·南贾尼 Kumail Nanjiani
      比尔·斯卡斯加德 Bill Skarsg?rd
      莉亚·麦克休 Lia McHugh
      布莱恩·泰里·亨利 Brian Tyree Henry
      劳伦·利德洛夫 Lauren Ridloff
      巴里·基奥恩 Barry Keoghan
      马东锡 Don Lee
      哈里什·帕特尔 Harish Patel
      哈斯·塞雷曼 Haaz Sleiman
      妮基塔·查达哈 Nikkita Chadha
      赞恩·阿尔·拉菲亚 Zain al-Rafeea
      卢西娅·埃夫斯塔希奥 Lucia Efstathiou
      大卫·卡耶 David Kaye
      布伦达·洛伦娜·加西亚 Brenda Lorena Garcia
      哈里·斯泰尔斯 Harry Styles
      以扫·丹尼尔·克罗斯 Esai Daniel Cross
      艾伦·斯科特 Alan Scott
      汉娜·多德 Hannah Dodd
      吉安尼·卡尔切蒂 Gianni Calchetti


◎简  介  

  《永恒族》讲述漫威电影宇宙中一支令人兴奋的新的超级英雄团队,他们是古老的外星人,在地球上秘密生活了数千年。在《复仇者联盟4:终局之战》的事件之后,一场意外的悲剧使得他们不得不走出来,团结一心对抗人类最为古老的敌人:变异族。

General
Complete name                  : E:\4K@电影Eternals.2021.2160p.WEB-DL.x265.10bit.HDR.DDP5.1.Atmos-NOGRP
Format                         : Matroska
Format version                 : Version 4
File size                      : 27.3 GiB
Duration                       : 2 h 35 min
Overall bit rate               : 25.1 Mb/s
Encoded date                   : UTC 2022-01-11 14:50:55
Writing application            : mkvmerge v63.0.0 ('Everything') 64-bit
Writing library                : libebml v1.4.2 + libmatroska v1.6.4

Video
ID                             : 1
Format                         : HEVC
Format/Info                    : High Efficiency Video Coding
Format profile                 : Main 10@L5@High
HDR format                     : SMPTE ST 2086, HDR10 compatible
Codec ID                       : V_MPEGH/ISO/HEVC
Duration                       : 2 h 35 min
Bit rate                       : 23.8 Mb/s
Width                          : 3 840 pixels
Height                         : 1 608 pixels
Display aspect ratio           : 2.40:1
Frame rate mode                : Constant
Frame rate                     : 23.976 (24000/1001) FPS
Color space                    : YUV
Chroma subsampling             : 4:2:0 (Type 2)
Bit depth                      : 10 bits
Bits/(Pixel*Frame)             : 0.161
Stream size                    : 25.9 GiB (95%)
Default                        : Yes
Forced                         : No
Color range                    : Limited
Color primaries                : BT.2020
Transfer characteristics       : PQ
Matrix coefficients            : BT.2020 non-constant
Mastering display color primar : BT.2020
Mastering display luminance    : min: 0.0050 cd/m2, max: 1000 cd/m2
Maximum Content Light Level    : 397 cd/m2
Maximum Frame-Average Light Le : 139 cd/m2

Audio
ID                             : 2
Format                         : E-AC-3 JOC
Format/Info                    : Enhanced AC-3 with Joint Object Coding
Commercial name                : Dolby Digital Plus with Dolby Atmos
Codec ID                       : A_EAC3
Duration                       : 2 h 35 min
Bit rate mode                  : Constant
Bit rate                       : 768 kb/s
Channel(s)                     : 6 channels
Channel layout                 : L R C LFE Ls Rs
Sampling rate                  : 48.0 kHz
Frame rate                     : 31.250 FPS (1536 SPF)
Compression mode               : Lossy
Stream size                    : 857 MiB (3%)
Language                       : English
Service kind                   : Complete Main
Default                        : Yes
Forced                         : No
Complexity index               : 16
Number of dynamic objects      : 15
Bed channel count              : 1 channel
Bed channel configuration      : LFE

Text #1
ID                             : 3
Format                         : UTF-8
Codec ID                       : S_TEXT/UTF8
Codec ID/Info                  : UTF-8 Plain Text
Language                       : English
Default                        : Yes
Forced                         : No

Text #2
ID                             : 4
Format                         : UTF-8
Codec ID                       : S_TEXT/UTF8
Codec ID/Info                  : UTF-8 Plain Text
Title                          : SDH
Language                       : English
Default                        : No
Forced                         : No

Text #3
ID                             : 5
Format                         : UTF-8
Codec ID                       : S_TEXT/UTF8
Codec ID/Info                  : UTF-8 Plain Text
Language                       : Spanish
Default                        : No
Forced                         : No

Text #4
ID                             : 6
Format                         : UTF-8
Codec ID                       : S_TEXT/UTF8
Codec ID/Info                  : UTF-8 Plain Text
Title                          : FORCED
Language                       : Spanish
Default                        : No
Forced                         : No

迅雷下载资源速度为零或资源敏感被和谐时,推荐使用qBittorrent等下载软件,有条件的推荐115更好的下载软件!

下载地址:

游客,如果您要查看本帖隐藏内容请回复

游客,如果您要查看本帖隐藏内容请回复

游客,如果您要查看本帖隐藏内容请回复

游客,如果您要查看本帖隐藏内容请回复

游客,如果您要查看本帖隐藏内容请回复

游客,如果您要查看本帖隐藏内容请回复

游客,如果您要查看本帖隐藏内容请回复

游客,如果您要查看本帖隐藏内容请回复

游客,如果您要查看本帖隐藏内容请回复

游客,如果您要查看本帖隐藏内容请回复

游客,如果您要查看本帖隐藏内容请回复

游客,如果您要查看本帖隐藏内容请回复

游客,如果您要查看本帖隐藏内容请回复



[永恒族]外挂字幕文件下载

游客,如果您要查看本帖隐藏内容请回复

游客,如果您要查看本帖隐藏内容请回复

游客,如果您要查看本帖隐藏内容请回复




.


上一篇:挚爱家书 / Journal for Jordan (2021) 4K高清版本下载
下一篇:精灵旅社4:变身大冒险(内封中字)(2022) 4K高清版本下载
回复

使用道具 举报

1323

主题

1428

帖子

1万

积分

超级版主

Rank: 8Rank: 8

积分
11131
 楼主| 发表于 4 天前 | 显示全部楼层
Eternals.2021.2160p.WEB-DL.x265.10bit.HDR.DDP5.1.Atmos-NOGRP.mkv_20220112_135004.736.jpg Eternals.2021.2160p.WEB-DL.x265.10bit.HDR.DDP5.1.Atmos-NOGRP.mkv_20220112_132932.212.jpg Eternals.2021.2160p.WEB-DL.x265.10bit.HDR.DDP5.1.Atmos-NOGRP.mkv_20220112_134903.464.jpg Eternals.2021.2160p.WEB-DL.x265.10bit.HDR.DDP5.1.Atmos-NOGRP.mkv_20220112_134917.743.jpg Eternals.2021.2160p.WEB-DL.x265.10bit.HDR.DDP5.1.Atmos-NOGRP.mkv_20220112_134943.127.jpg Eternals.2021.2160p.WEB-DL.x265.10bit.HDR.DDP5.1.Atmos-NOGRP.mkv_20220112_135026.048.jpg Eternals.2021.2160p.WEB-DL.x265.10bit.HDR.DDP5.1.Atmos-NOGRP.mkv_20220112_135224.376.jpg Eternals.2021.2160p.WEB-DL.x265.10bit.HDR.DDP5.1.Atmos-NOGRP.mkv_20220112_135255.679.jpg
回复 支持 反对

使用道具 举报

4

主题

1272

帖子

3836

积分

4K家园VIP

Rank: 9Rank: 9Rank: 9

积分
3836
发表于 4 天前 | 显示全部楼层
沙发位出租,
回复 支持 反对

使用道具 举报

2

主题

1306

帖子

3772

积分

4K家园VIP

Rank: 9Rank: 9Rank: 9

积分
3772
发表于 4 天前 | 显示全部楼层
沙发???
回复 支持 反对

使用道具 举报

0

主题

1321

帖子

3977

积分

4K家园VIP

Rank: 9Rank: 9Rank: 9

积分
3977
发表于 4 天前 | 显示全部楼层
非常好,顶一下
回复 支持 反对

使用道具 举报

0

主题

1

帖子

10

积分

新手上路

Rank: 1

积分
10
发表于 4 天前 | 显示全部楼层
gan tie Lou zhu fen Xiang
回复 支持 反对

使用道具 举报

0

主题

2

帖子

9

积分

新手上路

Rank: 1

积分
9
发表于 4 天前 来自手机 | 显示全部楼层
letmesee
回复

使用道具 举报

0

主题

2

帖子

9

积分

新手上路

Rank: 1

积分
9
发表于 4 天前 来自手机 | 显示全部楼层
有没有啊,let me see
回复 支持 反对

使用道具 举报

0

主题

15

帖子

106

积分

新手上路

Rank: 1

积分
106
发表于 4 天前 | 显示全部楼层
来看看阿卡
回复 支持 反对

使用道具 举报

0

主题

1

帖子

6

积分

新手上路

Rank: 1

积分
6
发表于 4 天前 | 显示全部楼层
xiexieladao
回复 支持 反对

使用道具 举报

0

主题

1

帖子

6

积分

新手上路

Rank: 1

积分
6
发表于 4 天前 | 显示全部楼层
66666666666666
回复 支持 反对

使用道具 举报

您需要登录后才可以回帖 登录 | 立即注册

本版积分规则

精彩图文
Archiver|手机版|TAG|Sitemap|新帖|专题|联系我们:邮箱: 4kjia.com@gmail.com   

4k家园   ©2019