[4K电影] 地堡 / The Bunker (1981) 4K高清版本下载

[复制链接]

1339

主题

1444

帖子

1万

积分

超级版主

Rank: 8Rank: 8

积分
11232
 楼主| 发表于 5 天前 | 显示全部楼层 |阅读模式
QQ图片20220114125533_副本.png

◎译  名 地堡
◎片  名 The Bunker
◎年  代 1981
◎产  地 法国
◎类  别 剧情/历史/战争
◎语  言 英语
◎上映日期 1981
◎IMDb评分  6.9/10 from 2082 users
◎IMDb链接  https://www.imdb.com/title/tt0082114/
◎豆瓣评分 0/10 from 0 users
◎豆瓣链接 https://douban.com/subject/5051001/
◎片  长 150分钟
◎导  演 乔治·谢弗
◎编  剧 约翰.盖伊 / 詹姆斯·奥唐纳
◎主  演 安东尼·霍普金斯
                   理查德·乔丹
                   克里夫·戈尔曼
                   詹姆斯·诺顿
                   迈克尔·隆斯代尔
                   马丁·贾维斯
                   迈克尔厨房
                   安德鲁·雷


◎简  介


        描述阿道夫·希特勒(安东尼·霍普金斯爵士)上周在柏林的地下掩体中和周围发生的事件,之前和期间都在为城市而战。
General
Complete name                  : H:\4K@电影\The Bunker (1981) Anthony Hopkins 2160p H.264 DTS (moviesbyrizzo).mkv
Format                         : Matroska
Format version                 : Version 4
File size                      : 11.7 GiB
Duration                       : 2 h 31 min
Overall bit rate               : 11.1 Mb/s
Encoded date                   : UTC 2022-01-13 12:57:21
Writing application            : mkvmerge v55.0.0 ('Waiting For Space') 64-bit
Writing library                : libebml v1.4.2 + libmatroska v1.6.4
IsTruncated                    : Yes

Video
ID                             : 1
Format                         : AVC
Format/Info                    : Advanced Video Codec
Format profile                 : Baseline@L5.1
Format settings                : 2 Ref Frames
Format settings, CABAC         : No
Format settings, Reference fra : 2 frames
Codec ID                       : V_MPEG4/ISO/AVC
Duration                       : 2 h 31 min
Bit rate                       : 10 000 kb/s
Width                          : 3 712 pixels
Height                         : 2 160 pixels
Display aspect ratio           : 1.719
Frame rate mode                : Constant
Frame rate                     : 23.976 FPS
Color space                    : YUV
Chroma subsampling             : 4:2:0
Bit depth                      : 8 bits
Scan type                      : Progressive
Bits/(Pixel*Frame)             : 0.052
Stream size                    : 10.2 GiB (87%)
Writing library                : x264 core 142
Encoding settings              : cabac=0 / ref=2 / deblock=1:0:0 / analyse=0x1:0x111 / me=hex / subme=4 / psy=1 / psy_rd=1.00:0.00 / mixed_ref=0 / me_range=16 / chroma_me=1 / trellis=1 / 8x8dct=0 / cqm=0 / deadzone=21,11 / fast_pskip=1 / chroma_qp_offset=0 / threads=12 / lookahead_threads=3 / sliced_threads=0 / nr=0 / decimate=1 / interlaced=0 / bluray_compat=0 / constrained_intra=0 / bframes=0 / weightp=0 / keyint=250 / keyint_min=23 / scenecut=40 / intra_refresh=0 / rc_lookahead=20 / rc=abr / mbtree=1 / bitrate=10000 / ratetol=1.0 / qcomp=0.60 / qpmin=0 / qpmax=69 / qpstep=4 / ip_ratio=1.40 / aq=1:1.00
Language                       : English
Default                        : Yes
Forced                         : No

Audio #1
ID                             : 2
Format                         : DTS
Format/Info                    : Digital Theater Systems
Codec ID                       : A_DTS
Duration                       : 2 h 31 min
Bit rate mode                  : Constant
Bit rate                       : 768 kb/s
Channel(s)                     : 2 channels
Channel layout                 : L R
Sampling rate                  : 48.0 kHz
Frame rate                     : 93.750 FPS (512 SPF)
Bit depth                      : 24 bits
Compression mode               : Lossy
Stream size                    : 830 MiB (7%)
Title                          : DTS Stereo - Main audio track
Language                       : English
Default                        : Yes
Forced                         : No

Audio #2
ID                             : 3
Format                         : AC-3
Format/Info                    : Audio Coding 3
Commercial name                : Dolby Digital
Codec ID                       : A_AC3
Duration                       : 2 h 31 min
Bit rate mode                  : Constant
Bit rate                       : 448 kb/s
Channel(s)                     : 2 channels
Channel layout                 : L R
Sampling rate                  : 48.0 kHz
Frame rate                     : 31.250 FPS (1536 SPF)
Compression mode               : Lossy
Stream size                    : 484 MiB (4%)
Title                          : AC3 audio track option
Language                       : English
Service kind                   : Complete Main
Default                        : No
Forced                         : No

迅雷下载资源速度为零或资源敏感被和谐时,推荐使用qBittorrent等下载软件,有条件的推荐115更好的下载软件!

下载地址:


游客,如果您要查看本帖隐藏内容请回复





.

上一篇:麦克白的悲剧(内封中字)(2022) 4K高清版本下载
下一篇:性吸引力 / Sex Appeal (2022) 4K高清版本下载
回复

使用道具 举报

5

主题

1667

帖子

4607

积分

4K家园VIP

Rank: 9Rank: 9Rank: 9

积分
4607
发表于 5 天前 | 显示全部楼层
鼎力支持!!
回复 支持 反对

使用道具 举报

0

主题

7280

帖子

1万

积分

4K家园VIP

Rank: 9Rank: 9Rank: 9

积分
16651
发表于 5 天前 | 显示全部楼层
太好啦&萬分感謝版主的無私發佈分享%
回复 支持 反对

使用道具 举报

1

主题

1332

帖子

3850

积分

4K家园VIP

Rank: 9Rank: 9Rank: 9

积分
3850
发表于 5 天前 来自手机 | 显示全部楼层
围观 围观 沙发在哪里!!!
回复 支持 反对

使用道具 举报

3

主题

1332

帖子

4014

积分

4K家园VIP

Rank: 9Rank: 9Rank: 9

积分
4014
发表于 4 天前 | 显示全部楼层
高手啊
回复 支持 反对

使用道具 举报

48

主题

1560

帖子

4494

积分

4K家园VIP

Rank: 9Rank: 9Rank: 9

积分
4494
发表于 4 天前 来自手机 | 显示全部楼层
学习下
回复 支持 反对

使用道具 举报

3

主题

1256

帖子

3788

积分

4K家园VIP

Rank: 9Rank: 9Rank: 9

积分
3788
发表于 4 天前 | 显示全部楼层
支持一下楼主发表的内容
回复 支持 反对

使用道具 举报

您需要登录后才可以回帖 登录 | 立即注册

本版积分规则

精彩图文
Archiver|手机版|TAG|Sitemap|新帖|专题|联系我们:邮箱: 4kjia.com@gmail.com   

4k家园   ©2019