[4K电影] 性吸引力 / Sex Appeal (2022) 4K高清版本下载

[复制链接]

1323

主题

1428

帖子

1万

积分

超级版主

Rank: 8Rank: 8

积分
11131
 楼主| 发表于 3 天前 | 显示全部楼层 |阅读模式
本帖最后由 最爱4K哟 于 2022-1-14 21:50 编辑

QQ图片20220114213934_副本.png

◎译  名 性吸引力/性感的吸引力
◎片  名 Sex Appeal
◎年  代 2022
◎产  地 美国
◎类  别 喜剧
◎语  言 英语
◎上映日期 2022-01-14(美国)
◎IMDb评分  0/10 from 0 users
◎IMDb链接  https://www.imdb.com/title/tt11203022/
◎豆瓣评分 0/10 from 0 users
◎豆瓣链接 https://movie.douban.com/subject/34942319/
◎导  演 Talia Osteen
◎编  剧 塔特 汉约克 Tate Hanyok
◎主  演 米卡·阿卜杜拉 Mika Abdalla
        杰克·索特 Jake Short

◎简  介

  米卡·阿卜杜拉(《青春相对论》)、杰克·索特([社交网络追爱记])将主演青春喜剧[吸引力](Sex Appeal,暂译)。该片由塔莉亚·奥斯汀([帮帮我])执导,塔特·汉约克操刀剧本。故事讲述功成名就的女明星艾弗里·汉森-怀特与男友异地相恋,当男友暗示想在即将到来的舞会上进一步发展两人的关系后,她开始面对自己的欲望并且学习爱情的模式,过程中,她意识到感情需要的是感性而不是理性。

Video
ID : 1
Format : HEVC
Format/Info : High Efficiency Video Coding
Format profile : Main 10@L5.1@Main
Codec ID : V_MPEGH/ISO/HEVC
Duration : 1 h 30 min
Bit rate : 12.6 Mb/s
Width : 3 840 pixels
Height : 2 160 pixels
Display aspect ratio : 16:9
Frame rate mode : Constant
Frame rate : 24.000 FPS
Color space : YUV
Chroma subsampling : 4:2:0
Bit depth : 10 bits
Bits/(Pixel*Frame) : 0.063
Stream size : 7.97 GiB (98%)
Default : Yes
Forced : No

Audio
ID : 2
Format : E-AC-3
Format/Info : Enhanced AC-3
Commercial name : Dolby Digital Plus
Codec ID : A_EAC3
Duration : 1 h 30 min
Bit rate mode : Constant
Bit rate : 256 kb/s
Channel(s) : 6 channels
Channel layout : L R C LFE Ls Rs
Sampling rate : 48.0 kHz
Frame rate : 31.250 FPS (1536 SPF)
Compression mode : Lossy
Stream size : 166 MiB (2%)
Language : English
Service kind : Complete Main
Default : Yes
Forced : No

Text #1
ID : 3
Format : UTF-8
Codec ID : S_TEXT/UTF8
Codec ID/Info : UTF-8 Plain Text
Duration : 1 h 30 min
Bit rate : 89 b/s
Count of elements : 1687
Stream size : 59.0 KiB (0%)
Language : English
Default : No
Forced : No

Text #2
ID : 4
Format : UTF-8
Codec ID : S_TEXT/UTF8
Codec ID/Info : UTF-8 Plain Text
Duration : 1 h 30 min
Bit rate : 99 b/s
Count of elements : 1866
Stream size : 65.5 KiB (0%)
Title : SDH
Language : English
Default : No
Forced : No

Text #3
ID : 5
Format : UTF-8
Codec ID : S_TEXT/UTF8
Codec ID/Info : UTF-8 Plain Text
Duration : 1 h 28 min
Bit rate : 105 b/s
Count of elements : 1869
Stream size : 68.9 KiB (0%)
Title : SDH
Language : Spanish
Default : No
Forced : No

迅雷下载资源速度为零或资源敏感被和谐时,推荐使用qBittorrent等下载软件,有条件的推荐115更好的下载软件!

下载地址:


游客,如果您要查看本帖隐藏内容请回复




.

上一篇:地堡 / The Bunker (1981) 4K高清版本下载
下一篇:清道夫:布局 / Ray Donovan (2022) 4K高清版本下载
回复

使用道具 举报

2

主题

1317

帖子

3785

积分

4K家园VIP

Rank: 9Rank: 9Rank: 9

积分
3785
发表于 3 天前 | 显示全部楼层
为保住菊花,这个一定得回复!
回复 支持 反对

使用道具 举报

3

主题

1634

帖子

4470

积分

4K家园VIP

Rank: 9Rank: 9Rank: 9

积分
4470
发表于 3 天前 | 显示全部楼层
有4K版卡,下个看下
回复 支持 反对

使用道具 举报

0

主题

7239

帖子

1万

积分

4K家园VIP

Rank: 9Rank: 9Rank: 9

积分
16578
发表于 3 天前 | 显示全部楼层
太好啦&萬分感謝版主的無私發佈分享%
回复 支持 反对

使用道具 举报

0

主题

4

帖子

60

积分

新手上路

Rank: 1

积分
60
发表于 3 天前 | 显示全部楼层
谢谢分享
回复

使用道具 举报

0

主题

21

帖子

113

积分

4K家园VIP

Rank: 9Rank: 9Rank: 9

积分
113
发表于 3 天前 | 显示全部楼层
谢谢分享
回复

使用道具 举报

0

主题

2

帖子

12

积分

4K家园VIP

Rank: 9Rank: 9Rank: 9

积分
12
发表于 3 天前 | 显示全部楼层
新片上架,感谢领导。
回复 支持 反对

使用道具 举报

1

主题

1203

帖子

3627

积分

4K家园VIP

Rank: 9Rank: 9Rank: 9

积分
3627
发表于 前天 05:54 | 显示全部楼层
OMG!介是啥东东!!!
回复 支持 反对

使用道具 举报

2

主题

1598

帖子

4394

积分

4K家园VIP

Rank: 9Rank: 9Rank: 9

积分
4394
发表于 前天 06:12 来自手机 | 显示全部楼层
回复 支持 反对

使用道具 举报

2

主题

1342

帖子

4048

积分

4K家园VIP

Rank: 9Rank: 9Rank: 9

积分
4048
发表于 前天 09:14 | 显示全部楼层
回复 支持 反对

使用道具 举报

您需要登录后才可以回帖 登录 | 立即注册

本版积分规则

精彩图文
Archiver|手机版|TAG|Sitemap|新帖|专题|联系我们:邮箱: 4kjia.com@gmail.com   

4k家园   ©2019