[4Kjia独享4K资源] 以暴制暴 / run & gun (2022) 4K高清版本下载

[复制链接]

1701

主题

1834

帖子

1万

积分

超级版主

Rank: 8Rank: 8

积分
13887
 楼主| 发表于 2022-1-15 10:50:24 | 显示全部楼层 |阅读模式
QQ图片20220115103609_副本.png

◎译  名 以暴制暴/暴力枪神/雷
◎片  名 run & gun
◎年  代 2022
◎产  地 美国
◎类  别 动作 / 惊悚
◎语  言 英语
◎上映日期 2022-01-11(美国)
◎IMDb评分  0/10 from 0 users
◎IMDb链接  https://www.imdb.com/title/tt14039086/
◎豆瓣评分 0/10 from 0 users
◎豆瓣链接 https://movie.douban.com/subject/35688979/
◎导  演 克里斯托弗·博雷利 Christopher Borrelli
◎编  剧 克里斯托弗·博雷利 Christopher Borrelli
◎主  演 安吉拉·萨拉弗安 Angela Sarafyan
        理查德·坎德 Richard Kind
        贾娜尔·帕里希 Janel Parrish
        马克·达卡斯考斯 Mark Dacascos
        布拉德·威廉姆·亨克 Brad William Henke
        艾莉森·桑顿 Alison Thornton
        杨升德 Hudson Yang
        拉斐尔·塞布里恩 Rafael Cebrián
        Michelle Jubilee Gonzalez Michelle Jubilee Gonzalez



◎简  介


  在离开了犯罪和暴力的生活后,雷改过自新,在郊区享受着平静的家庭生活。但当他的过去被发现后,雷被胁迫犯罪,最终发现陷入阴谋同时自己也受了伤,他所爱的人更是生命危在旦夕,雷不得已只能以暴制暴。

General
Complete name                  : D:\Run.Gun.2021.2160p.WEB-DL.DD5.1.H.265-EVO.mkv
Format                         : Matroska
Format version                 : Version 4
File size                      : 13.9 GiB
Duration                       : 1 h 35 min
Overall bit rate               : 20.8 Mb/s
Encoded date                   : UTC 2022-01-14 21:32:12
Writing application            : mkvmerge v63.0.0 ('Everything') 64-bit
Writing library                : libebml v1.4.2 + libmatroska v1.6.4
IsTruncated                    : Yes

Video
ID                             : 1
Format                         : HEVC
Format/Info                    : High Efficiency Video Coding
Format profile                 : Main 10@L5@High
Codec ID                       : V_MPEGH/ISO/HEVC
Duration                       : 1 h 35 min
Bit rate                       : 20.0 Mb/s
Width                          : 3 840 pixels
Height                         : 1 600 pixels
Display aspect ratio           : 2.40:1
Frame rate mode                : Constant
Frame rate                     : 23.976 (24000/1001) FPS
Color space                    : YUV
Chroma subsampling             : 4:2:0
Bit depth                      : 10 bits
Bits/(Pixel*Frame)             : 0.136
Stream size                    : 13.4 GiB (96%)
Default                        : Yes
Forced                         : No
Color range                    : Limited
Color primaries                : BT.709
Transfer characteristics       : BT.709
Matrix coefficients            : BT.709

Audio
ID                             : 2
Format                         : AC-3
Format/Info                    : Audio Coding 3
Commercial name                : Dolby Digital
Codec ID                       : A_AC3
Duration                       : 1 h 35 min
Bit rate mode                  : Constant
Bit rate                       : 384 kb/s
Channel(s)                     : 6 channels
Channel layout                 : L R C LFE Ls Rs
Sampling rate                  : 48.0 kHz
Frame rate                     : 31.250 FPS (1536 SPF)
Compression mode               : Lossy
Stream size                    : 263 MiB (2%)
Language                       : English
Service kind                   : Complete Main
Default                        : Yes
Forced                         : No

Text
ID                             : 3
Format                         : UTF-8
Codec ID                       : S_TEXT/UTF8
Codec ID/Info                  : UTF-8 Plain Text
Title                          : Forced
Language                       : English
Default                        : Yes
Forced                         : Yes

迅雷下载资源速度为零或资源敏感被和谐时,推荐使用qBittorrent等下载软件,有条件的推荐115更好的下载软件!

下载地址:


****此区域为收费内容****    需支付 9 金币后可查看立即购买




.

上一篇:清道夫:布局 / Ray Donovan (2022) 4K高清版本下载
下一篇:楚门的世界 (内封中字) / The Truman Show (1998) 4K高清版本下载
回复

使用道具 举报

2

主题

1419

帖子

4109

积分

4K家园VIP

Rank: 9Rank: 9Rank: 9

积分
4109
发表于 2022-1-15 10:50:28 | 显示全部楼层
不错 支持下
回复 支持 反对

使用道具 举报

46

主题

1496

帖子

4332

积分

4K家园VIP

Rank: 9Rank: 9Rank: 9

积分
4332
发表于 2022-1-15 10:50:28 | 显示全部楼层
4K家园资源不错,前排支持
回复 支持 反对

使用道具 举报

0

主题

8229

帖子

1万

积分

4K家园VIP

Rank: 9Rank: 9Rank: 9

积分
18809
发表于 2022-1-15 11:49:41 | 显示全部楼层
太好啦&萬分感謝版主的無私發佈分享%
回复 支持 反对

使用道具 举报

0

主题

342

帖子

2094

积分

注册会员

Rank: 2

积分
2094
发表于 2022-1-15 12:34:53 | 显示全部楼层
谢谢楼主及时分享
回复 支持 反对

使用道具 举报

0

主题

42

帖子

840

积分

新手上路

Rank: 1

积分
840
发表于 2022-1-15 20:00:23 | 显示全部楼层
谢谢谢谢谢谢
回复 支持 反对

使用道具 举报

1

主题

1160

帖子

3500

积分

4K家园VIP

Rank: 9Rank: 9Rank: 9

积分
3500
发表于 2022-1-16 06:25:27 | 显示全部楼层
你们要是有4K资源记得分享,别小气
回复 支持 反对

使用道具 举报

0

主题

121

帖子

540

积分

新手上路

Rank: 1

积分
540
发表于 2022-1-16 20:36:19 | 显示全部楼层
4K家园资源不错,前排支持
回复 支持 反对

使用道具 举报

0

主题

1183

帖子

3563

积分

4K家园VIP

Rank: 9Rank: 9Rank: 9

积分
3563
发表于 2022-1-18 06:22:31 | 显示全部楼层
前排支持下
回复 支持 反对

使用道具 举报

57

主题

1536

帖子

4466

积分

4K家园VIP

Rank: 9Rank: 9Rank: 9

积分
4466
发表于 2022-1-18 07:13:15 | 显示全部楼层
大人,此事必有蹊跷!
回复 支持 反对

使用道具 举报

您需要登录后才可以回帖 登录 | 立即注册

本版积分规则

精彩图文
Archiver|手机版|TAG|Sitemap|新帖|专题|联系我们:邮箱: 4kjia.com@gmail.com   

4k家园   ©2019