[4K UHD 蓝光原盘] [乐高大电影]四部曲--4K蓝光版本/2022大汇聚/第一聚

[复制链接]

1557

主题

1626

帖子

1万

积分

超级版主

Rank: 8Rank: 8

积分
17433
 楼主| 发表于 2022-1-15 20:26:51 | 显示全部楼层 |阅读模式
本帖最后由 没完没了 于 2022-1-15 20:34 编辑

111.jpg 112.jpg 113.png 114.jpg


111.jpg
◎译  名 乐高幻影忍者大电影/LEGO旋风忍者大电影(港)/Ninjago/乐高忍者/乐高忍者大电影/乐高旋风忍者电影(台)
◎片  名 The Lego Ninjago Movie
◎年  代 2017
◎产  地 美国,丹麦
◎类  别 喜剧 / 动作 / 动画 / 冒险
◎语  言 英语
◎上映日期 2017-09-22(美国)
◎IMDb评分  6.0/10 from 24823 users
◎IMDb链接  https://www.imdb.com/title/tt3014284/
◎豆瓣评分 6.5/10 from 5441 users
◎豆瓣链接 https://movie.douban.com/subject/25833230/
◎片  长 101分钟
◎导  演 查理·宾 Charlie Bean / 保罗·费舍尔 Paul Fisher / 鲍勃·洛根 Bob Logan
◎编  剧 鲍勃·洛根 Bob Logan / 保罗·费舍尔 Paul Fisher / 威廉·惠勒 William Wheeler / 汤姆·惠勒 Tom Wheeler / 贾里德·斯特恩 Jared Stern / 约翰·惠廷顿 John Whittington / 希拉里·温斯顿 Hilary Winston / 丹·哈格曼 Dan Hageman / 凯文·哈格曼 Kevin Hageman
◎主  演 成龙 Jackie Chan
      戴夫·弗兰科 Dave Franco
      弗莱德·阿米森 Fred Armisen
      库梅尔·南贾尼 Kumail Nanjiani
      迈克尔·佩纳 Michael Pe?a
      艾比·雅各布森 Abbi Jacobson
      扎克·伍兹 Zach Woods
      大卫·布伦斯 David Burrows
      贾斯汀·塞洛克斯 Justin Theroux
      黄阿丽 Ali Wong
      查琳·易 Charlyne Yi
      奥立薇娅·玛恩 Olivia Munn
      劳拉·奈特林格 Laura Kightlinger
      兰道尔·朴 Randall Park
      瑞塔·希尔丽夫 Retta Sirleaf
      克里斯·哈德维克 Chris Hardwick
      迈克尔·斯特拉罕 Michael Strahan
      罗宾·罗伯茨 Robin Roberts
      吴恬敏 Constance Wu
      加勒特·埃尔金斯 Garret Elkins
      托德·汉森 Todd Hansen
      道格·尼古拉斯 Doug Nicholas


◎简  介

  繁华时尚的忍者岛,乐高小人们过着快乐无忧的日子,除了……隔三差五会遭到邪恶魔头加满都(贾斯汀·塞洛克斯 Justin Theroux 配音)的入侵骚扰外。当然,幸亏有英勇无畏的幻影忍者,他们一次次挺身而出,与魔王大战,才使得忍者岛免于被邪恶统治的危险。绿色忍者劳埃德(戴夫·弗兰科 Dave Franco 饰)是加满都的亲生儿子,不知道他忍者身份的市民们因此经常嘲笑辱骂劳埃德。郁闷的青年只得将一腔怒火撒在以破坏为乐趣的加满都身上。在又一次遭到挫败后,加满都带着威力更强大的军团卷土重来。关键时刻,劳埃德启动了吴大师(成龙 配音)禁止使用的终极武器,最终给忍者岛带来毁灭性的灾难。

  为了拯救忍者岛,幻影忍者们跋山涉水,甚至与加满都展开了合作……

◎获奖情况

  第16届美国视觉效果协会奖 ?(2018)
  最佳动画电影视觉效果(提名)
  最佳动画电影CG动画角色(提名)
  最佳动画电影CG背景(提名)

General
Complete name                  : H:\4K@电影\Lego Franchise 4K UHD Collection (2160p HDR BDRip x265 10bit AC3) [4KLiGHT]
Format                         : Matroska
Format version                 : Version 4
File size                      : 3.86 GiB
Duration                       : 1 h 41 min
Overall bit rate               : 5 439 kb/s
Movie name                     : The LEGO Ninjago Movie (2017) MULTi VFF 2160p 10bit 4KLight HDR BluRay AC3 5.1 x265-QTZ
Encoded date                   : UTC 2020-05-22 05:35:06
Writing application            : mkvmerge v44.0.0 ('Domino') 64-bit
Writing library                : libebml v1.3.10 + libmatroska v1.5.2

Video
ID                             : 1
Format                         : HEVC
Format/Info                    : High Efficiency Video Coding
Format profile                 : Main 10@L5.1@Main
HDR format                     : SMPTE ST 2086, HDR10 compatible
Codec ID                       : V_MPEGH/ISO/HEVC
Duration                       : 1 h 41 min
Bit rate                       : 4 050 kb/s
Width                          : 3 840 pixels
Height                         : 1 600 pixels
Display aspect ratio           : 2.40:1
Frame rate mode                : Constant
Frame rate                     : 23.976 (24000/1001) FPS
Color space                    : YUV
Chroma subsampling             : 4:2:0 (Type 2)
Bit depth                      : 10 bits
Bits/(Pixel*Frame)             : 0.027
Stream size                    : 2.87 GiB (74%)
Default                        : Yes
Forced                         : No
Color range                    : Limited
Color primaries                : BT.2020
Transfer characteristics       : PQ
Matrix coefficients            : BT.2020 non-constant
Mastering display color primar : Display P3
Mastering display luminance    : min: 0.0050 cd/m2, max: 4000 cd/m2
Maximum Content Light Level    : 810 cd/m2
Maximum Frame-Average Light Le : 472 cd/m2

Audio #1
ID                             : 2
Format                         : AC-3
Format/Info                    : Audio Coding 3
Commercial name                : Dolby Digital
Codec ID                       : A_AC3
Duration                       : 1 h 41 min
Bit rate mode                  : Constant
Bit rate                       : 640 kb/s
Channel(s)                     : 6 channels
Channel layout                 : L R C LFE Ls Rs
Sampling rate                  : 48.0 kHz
Frame rate                     : 31.250 FPS (1536 SPF)
Compression mode               : Lossy
Stream size                    : 465 MiB (12%)
Language                       : French
Service kind                   : Complete Main
Default                        : Yes
Forced                         : No

Audio #2
ID                             : 3
Format                         : AC-3
Format/Info                    : Audio Coding 3
Commercial name                : Dolby Digital
Codec ID                       : A_AC3
Duration                       : 1 h 41 min
Bit rate mode                  : Constant
Bit rate                       : 640 kb/s
Channel(s)                     : 6 channels
Channel layout                 : L R C LFE Ls Rs
Sampling rate                  : 48.0 kHz
Frame rate                     : 31.250 FPS (1536 SPF)
Compression mode               : Lossy
Stream size                    : 465 MiB (12%)
Language                       : English
Service kind                   : Complete Main
Default                        : No
Forced                         : No

Text #1
ID                             : 4
Format                         : UTF-8
Codec ID                       : S_TEXT/UTF8
Codec ID/Info                  : UTF-8 Plain Text
Title                          : FR Forced : SRT
Language                       : French
Default                        : Yes
Forced                         : Yes

Text #2
ID                             : 5
Format                         : UTF-8
Codec ID                       : S_TEXT/UTF8
Codec ID/Info                  : UTF-8 Plain Text
Title                          : FR Full : SRT
Language                       : French
Default                        : No
Forced                         : No

Text #3
ID                             : 6
Format                         : UTF-8
Codec ID                       : S_TEXT/UTF8
Codec ID/Info                  : UTF-8 Plain Text
Title                          : ENG Full : SRT
Language                       : English
Default                        : No
Forced                         : No

Text #4
ID                             : 7
Format                         : PGS
Muxing mode                    : zlib
Codec ID                       : S_HDMV/PGS
Codec ID/Info                  : Picture based subtitle format used on BDs/HD-DVDs
Title                          : FR Forced : PGS
Language                       : French
Default                        : No
Forced                         : Yes

Text #5
ID                             : 8
Format                         : PGS
Muxing mode                    : zlib
Codec ID                       : S_HDMV/PGS
Codec ID/Info                  : Picture based subtitle format used on BDs/HD-DVDs
Title                          : FR Full : PGS
Language                       : French
Default                        : No
Forced                         : No

Text #6
ID                             : 9
Format                         : PGS
Muxing mode                    : zlib
Codec ID                       : S_HDMV/PGS
Codec ID/Info                  : Picture based subtitle format used on BDs/HD-DVDs
Title                          : ENG Full : PGS
Language                       : English
Default                        : No
Forced                         : No



112.jpg
◎译  名 乐高大电影2 / LEGO英雄传2(港) / The Lego Movie 2 / 乐高玩电影2(台)
◎片  名 The Lego Movie 2: The Second Part
◎年  代 2019
◎产  地 美国 / 澳大利亚 / 挪威 / 丹麦
◎类  别 喜剧 / 动画 / 冒险
◎语  言 英语
◎上映日期 2019-02-08(美国) / 2019-03-22(中国大陆)
◎IMDb评分  6.6/10 from 62048 users
◎IMDb链接  http://www.imdb.com/title/tt3513498
◎豆瓣评分 6.6/10 from 15361 users
◎豆瓣链接 https://movie.douban.com/subject/25833233/
◎片  长 106分钟
◎导  演 迈克·米切尔 Mike Mitchell
◎编  剧 菲尔·罗德 Phil Lord / 克里斯托弗·米勒 Christopher Miller / 马修·福格尔 Matthew Fogel
◎主  演 克里斯·帕拉特 Chris Pratt
      伊丽莎白·班克斯 Elizabeth Banks
      威尔·阿奈特 Will Arnett
      蒂凡尼·哈迪斯 Tiffany Haddish
      斯蒂芬妮·比翠丝 Stephanie Beatriz
      爱丽森·布里 Alison Brie
      尼克·奥弗曼 Nick Offerman
      查理·戴 Charlie Day
      玛娅·鲁道夫 Maya Rudolph
      威尔·法瑞尔 Will Ferrell
      杰登·桑德 Jadon Sand
      布鲁克琳·普林斯 Brooklynn Prince
      查宁·塔图姆 Channing Tatum
      乔纳·希尔 Jonah Hill
      理查德·艾欧阿德 Richard Ayoade
      本·施瓦茨 Ben Schwartz
      诺尔·费丁 Noel Fielding
      杰森·莫玛 Jason Momoa
      寇碧·史莫德斯 Cobie Smulders
      伊克·巴里霍尔兹 Ike Barinholtz
      拉尔夫·费因斯 Ralph Fiennes
      威尔·福特 Will Forte
      欧阳万成 Jimmy O. Yang
      乔玛·塔科内 Jorma Taccone
      布鲁斯·威利斯 Bruce Willis
      加里·佩顿 Gary Payton


◎简  介  

  风靡全球的经典动画系列新作《乐高大电影2》爆笑来袭。乐高小人艾米特贱萌回归,抱得美人归的他和女友露西过着甜蜜的生活。但是看似平静的表面其实暗藏阴谋,神秘外星入侵者突然降临,他们的破坏速度远在乐高小人的建造速度之上,艾米特的世界再度危在旦夕。外星入侵者甚至能洞察艾米特等人的每一次行动,困难与挑战直线升级,身手敏捷的露西也难逃厄运,陷入危机。艾米特必须联合一众好友,再次拯救世界。这一次,他们将前往遥远未知的新奇世界,见识更多令人大开眼界的乐高世界,同时也将发现真正的自我。

General
Complete name                  : H:\4K@电影\Lego Franchise 4K UHD Collection (2160p HDR BDRip x265 10bit AC3) [4KLiGHT]
Format                         : Matroska
Format version                 : Version 4
File size                      : 2.64 GiB
Duration                       : 1 h 47 min
Overall bit rate               : 3 533 kb/s
Movie name                     : The Lego Movie 2 The Second Part (2019) MULTi VFF 2160p 10bit 4KLight HDR BluRay AC3 5.1 x265-QTZ
Encoded date                   : UTC 2020-05-21 13:55:14
Writing application            : mkvmerge v44.0.0 ('Domino') 64-bit
Writing library                : libebml v1.3.10 + libmatroska v1.5.2

Video
ID                             : 1
Format                         : HEVC
Format/Info                    : High Efficiency Video Coding
Format profile                 : Main 10@L5.1@Main
HDR format                     : SMPTE ST 2086, HDR10 compatible
Codec ID                       : V_MPEGH/ISO/HEVC
Duration                       : 1 h 47 min
Bit rate                       : 2 183 kb/s
Width                          : 3 840 pixels
Height                         : 1 604 pixels
Display aspect ratio           : 2.40:1
Frame rate mode                : Constant
Frame rate                     : 23.976 (24000/1001) FPS
Color space                    : YUV
Chroma subsampling             : 4:2:0 (Type 2)
Bit depth                      : 10 bits
Bits/(Pixel*Frame)             : 0.015
Stream size                    : 1.63 GiB (62%)
Default                        : Yes
Forced                         : No
Color range                    : Limited
Color primaries                : BT.2020
Transfer characteristics       : PQ
Matrix coefficients            : BT.2020 non-constant
Mastering display color primar : Display P3
Mastering display luminance    : min: 0.0050 cd/m2, max: 4000 cd/m2
Maximum Content Light Level    : 3848 cd/m2
Maximum Frame-Average Light Le : 370 cd/m2

Audio #1
ID                             : 2
Format                         : AC-3
Format/Info                    : Audio Coding 3
Commercial name                : Dolby Digital
Codec ID                       : A_AC3
Duration                       : 1 h 47 min
Bit rate mode                  : Constant
Bit rate                       : 640 kb/s
Channel(s)                     : 6 channels
Channel layout                 : L R C LFE Ls Rs
Sampling rate                  : 48.0 kHz
Frame rate                     : 31.250 FPS (1536 SPF)
Compression mode               : Lossy
Stream size                    : 491 MiB (18%)
Title                          : FR VFF : AC3 5.1
Language                       : French
Service kind                   : Complete Main
Default                        : Yes
Forced                         : No

Audio #2
ID                             : 3
Format                         : AC-3
Format/Info                    : Audio Coding 3
Commercial name                : Dolby Digital
Codec ID                       : A_AC3
Duration                       : 1 h 47 min
Bit rate mode                  : Constant
Bit rate                       : 640 kb/s
Channel(s)                     : 6 channels
Channel layout                 : L R C LFE Ls Rs
Sampling rate                  : 48.0 kHz
Frame rate                     : 31.250 FPS (1536 SPF)
Compression mode               : Lossy
Stream size                    : 491 MiB (18%)
Title                          : ENG VO : AC3 5.1
Language                       : English
Service kind                   : Complete Main
Default                        : No
Forced                         : No

Text #1
ID                             : 4
Format                         : UTF-8
Codec ID                       : S_TEXT/UTF8
Codec ID/Info                  : UTF-8 Plain Text
Title                          : FR Forced : SRT
Language                       : French
Default                        : Yes
Forced                         : Yes

Text #2
ID                             : 5
Format                         : UTF-8
Codec ID                       : S_TEXT/UTF8
Codec ID/Info                  : UTF-8 Plain Text
Title                          : FR Full : SRT
Language                       : French
Default                        : No
Forced                         : No

Text #3
ID                             : 6
Format                         : UTF-8
Codec ID                       : S_TEXT/UTF8
Codec ID/Info                  : UTF-8 Plain Text
Title                          : ENG Full : SRT
Language                       : English
Default                        : No
Forced                         : No

Text #4
ID                             : 7
Format                         : PGS
Muxing mode                    : zlib
Codec ID                       : S_HDMV/PGS
Codec ID/Info                  : Picture based subtitle format used on BDs/HD-DVDs
Title                          : FR Forced : PGS
Language                       : French
Default                        : No
Forced                         : Yes

Text #5
ID                             : 8
Format                         : PGS
Muxing mode                    : zlib
Codec ID                       : S_HDMV/PGS
Codec ID/Info                  : Picture based subtitle format used on BDs/HD-DVDs
Title                          : FR Full : PGS
Language                       : French
Default                        : No
Forced                         : No

Menu
00:00:00.000                   : :Chapter 01
00:04:15.880                   : :Chapter 02
00:12:35.045                   : :Chapter 03
00:15:09.950                   : :Chapter 04
00:21:57.733                   : :Chapter 05
00:29:50.330                   : :Chapter 06
00:36:22.680                   : :Chapter 07
00:44:47.976                   : :Chapter 08
00:50:50.505                   : :Chapter 09
00:57:05.255                   : :Chapter 10
01:01:07.163                   : :Chapter 11
01:09:48.350                   : :Chapter 12
01:17:31.938                   : :Chapter 13
01:21:58.121                   : :Chapter 14
01:26:49.537                   : :Chapter 15
01:34:06.265                   : :Chapter 16
01:38:30.571                   : :Chapter 17



113.png
◎译  名 乐高大电影/LEGO英雄传(港)
◎片  名 The Lego Movie
◎年  代 2014
◎产  地 美国/澳大利亚/丹麦
◎类  别 喜剧/动画/冒险
◎语  言 英语
◎上映日期 2014-02-07(美国)
◎IMDb评分  7.7/10 from 340060 users
◎IMDb链接  https://www.imdb.com/title/tt1490017/
◎豆瓣评分 7.9/10 from 56805 users
◎豆瓣链接 https://movie.douban.com/subject/3927734/
◎片  长 100分钟
◎导  演 菲尔·罗德 Phil Lord / 克里斯托弗·米勒 Christopher Miller
◎主  演 克里斯·帕拉特 Chris Pratt
      威尔·法瑞尔 Will Ferrell
      伊丽莎白·班克斯 Elizabeth Banks
      威尔·阿奈特 Will Arnett
      连姆·尼森 Liam Neeson
      摩根·弗里曼 Morgan Freeman
      查宁·塔图姆 Channing Tatum
      尼克·奥弗曼 Nick Offerman
      爱丽森·布里 Alison Brie
      查理·戴 Charlie Day
      乔纳·希尔 Jonah Hill
      寇碧·史莫德斯 Cobie Smulders
      大卫·布伦斯 David Burrows
      安东尼·丹尼尔斯 Anthony Daniels
      威尔·福特 Will Forte
      比利·迪·威廉姆斯 Billy Dee Williams
      基思·弗格森 Keith Ferguson
      沙奎尔·奥尼尔 Shaquille O'Neal
      杰登·桑德 Jadon Sand
      戴夫·弗兰科 Dave Franco
      杰克·约翰逊 Jake M. Johnson


◎简  介

  艾米特(克里斯·帕拉特 Chris Pratt 配音)是乐高世界中一个普通到没有存在感的建筑师,他每天精神饱满,乐观向上,按照说明书的指示从事一天的活动。某天收工后,他意外掉入一个深洞,后背还黏了奇怪的东西,随后就被兼具凶暴和善良两面的警察(利亚姆·尼森 Liam Neeson 配音)带走问话。原来统治乐高世界的生意王(威尔·法瑞尔 Will Ferrell 配音)对那些极富创造力的小人极为不满,他讨厌不同系列的乐高世界相互交叉,更讨厌脱离了说明书独辟蹊径的发明创造。因此他将所有世界隔开,囚禁了那些创意大师,还策划着一场可怕的阴谋。艾米特危机时刻被露西(伊丽莎白·班克斯 Elizabeth Banks 配音)救下,并被先知维特鲁维斯(摩根·弗里曼 Morgan Freeman 配音)认定为救世主。
  暴风雨般的迫害袭向创意大师们,想象力贫乏的艾米特能否担此重任?

General
Complete name                  : H:\4K@电影\Lego Franchise 4K UHD Collection (2160p HDR BDRip x265 10bit AC3) [4KLiGHT]
Format                         : Matroska
Format version                 : Version 4
File size                      : 3.04 GiB
Duration                       : 1 h 40 min
Overall bit rate               : 4 332 kb/s
Movie name                     : The Lego Movie (2014) MULTi VFF 2160p 10bit 4KLight HDR BluRay AC3 5.1 x265-QTZ
Encoded date                   : UTC 2020-05-21 13:50:26
Writing application            : mkvmerge v44.0.0 ('Domino') 64-bit
Writing library                : libebml v1.3.10 + libmatroska v1.5.2

Video
ID                             : 1
Format                         : HEVC
Format/Info                    : High Efficiency Video Coding
Format profile                 : Main 10@L5.1@Main
HDR format                     : SMPTE ST 2086, HDR10 compatible
Codec ID                       : V_MPEGH/ISO/HEVC
Duration                       : 1 h 40 min
Bit rate                       : 3 158 kb/s
Width                          : 3 840 pixels
Height                         : 1 600 pixels
Display aspect ratio           : 2.40:1
Frame rate mode                : Constant
Frame rate                     : 23.976 (24000/1001) FPS
Color space                    : YUV
Chroma subsampling             : 4:2:0 (Type 2)
Bit depth                      : 10 bits
Bits/(Pixel*Frame)             : 0.021
Stream size                    : 2.22 GiB (73%)
Default                        : Yes
Forced                         : No
Color range                    : Limited
Color primaries                : BT.2020
Transfer characteristics       : PQ
Matrix coefficients            : BT.2020 non-constant
Mastering display color primar : Display P3
Mastering display luminance    : min: 0.0050 cd/m2, max: 4000 cd/m2
Maximum Content Light Level    : 2154 cd/m2
Maximum Frame-Average Light Le : 1521 cd/m2

Audio #1
ID                             : 2
Format                         : AC-3
Format/Info                    : Audio Coding 3
Commercial name                : Dolby Digital
Codec ID                       : A_AC3
Duration                       : 1 h 40 min
Bit rate mode                  : Constant
Bit rate                       : 448 kb/s
Channel(s)                     : 6 channels
Channel layout                 : L R C LFE Ls Rs
Sampling rate                  : 48.0 kHz
Frame rate                     : 31.250 FPS (1536 SPF)
Compression mode               : Lossy
Stream size                    : 322 MiB (10%)
Title                          : FR VFF : AC3 5.1
Language                       : French
Service kind                   : Complete Main
Default                        : Yes
Forced                         : No

Audio #2
ID                             : 3
Format                         : AC-3
Format/Info                    : Audio Coding 3
Commercial name                : Dolby Digital
Codec ID                       : A_AC3
Duration                       : 1 h 40 min
Bit rate mode                  : Constant
Bit rate                       : 640 kb/s
Channel(s)                     : 6 channels
Channel layout                 : L R C LFE Ls Rs
Sampling rate                  : 48.0 kHz
Frame rate                     : 31.250 FPS (1536 SPF)
Compression mode               : Lossy
Stream size                    : 460 MiB (15%)
Title                          : ENG VO : AC3 5.1
Language                       : English
Service kind                   : Complete Main
Default                        : No
Forced                         : No

Text #1
ID                             : 4
Format                         : UTF-8
Codec ID                       : S_TEXT/UTF8
Codec ID/Info                  : UTF-8 Plain Text
Title                          : FR Forced : SRT
Language                       : French
Default                        : Yes
Forced                         : Yes

Text #2
ID                             : 5
Format                         : UTF-8
Codec ID                       : S_TEXT/UTF8
Codec ID/Info                  : UTF-8 Plain Text
Title                          : FR Full : SRT
Language                       : French
Default                        : No
Forced                         : No

Text #3
ID                             : 6
Format                         : UTF-8
Codec ID                       : S_TEXT/UTF8
Codec ID/Info                  : UTF-8 Plain Text
Title                          : ENG Full : SRT
Language                       : English
Default                        : No
Forced                         : No

Text #4
ID                             : 7
Format                         : PGS
Muxing mode                    : zlib
Codec ID                       : S_HDMV/PGS
Codec ID/Info                  : Picture based subtitle format used on BDs/HD-DVDs
Title                          : FR Forced : PGS
Language                       : French
Default                        : No
Forced                         : Yes

Text #5
ID                             : 8
Format                         : PGS
Muxing mode                    : zlib
Codec ID                       : S_HDMV/PGS
Codec ID/Info                  : Picture based subtitle format used on BDs/HD-DVDs
Title                          : FR Full : PGS
Language                       : French
Default                        : No
Forced                         : No

Text #6
ID                             : 9
Format                         : PGS
Muxing mode                    : zlib
Codec ID                       : S_HDMV/PGS
Codec ID/Info                  : Picture based subtitle format used on BDs/HD-DVDs
Title                          : ENG Full : PGS
Language                       : English
Default                        : No
Forced                         : No



114.jpg
◎译  名 乐高蝙蝠侠大电影/Lego蝙蝠侠英雄传(港)/乐高蝙蝠侠电影(台)/乐高蝙蝠侠/乐高大电影:蝙蝠侠
◎片  名 The LEGO Batman Movie
◎年  代 2017
◎产  地 美国
◎类  别 喜剧/动作/动画/冒险
◎语  言 英语
◎上映日期 2017-02-10(美国)/2017-03-03(中国大陆)
◎IMDb评分  7.3/10 from 140825 users
◎IMDb链接  http://www.imdb.com/title/tt4116284/
◎豆瓣评分 8.0/10 from 57121 users
◎豆瓣链接 https://movie.douban.com/subject/26145033/
◎片  长 105分钟
◎导  演 克里斯·麦凯 Chris McKay
◎主  演 威尔·阿奈特 Will Arnett
      罗莎里奥·道森 Rosario Dawson
      拉尔夫·费因斯 Ralph Fiennes
      迈克尔·塞拉 Michael Cera
      扎克·加利凡纳基斯 Zach Galifianakis
      珍妮·斯蕾特 Jenny Slate
      苏珊·本尼特 Susan Bennett
      玛丽亚·凯莉 Mariah Carey
      查宁·塔图姆 Channing Tatum
      乔纳·希尔 Jonah Hill
      亚当·德维尼 Adam DeVine
      柯南·奥布莱恩 Conan O'Brien
      道格·本森 Doug Benson
      比利·迪·威廉姆斯 Billy Dee Williams
      杰森·曼兹沃克斯 Jason Mantzoukas
      艾迪·伊扎德 Eddie Izzard
      赛斯·格林 Seth Green
      佐伊·克罗维兹 Zoë Kravitz
      凯特 米库契 Kate Micucci
      瑞琪·琳德赫姆 Riki Lindhome
      杰梅奈·克莱门特 Jemaine Clement
      艾丽·坎伯尔 Ellie Kemper

◎简  介

  罪恶丛生的哥谭市,疯狂的小丑(扎克·加利凡纳基斯 Zach Galifianakis 配音)带领恶棍军团展开新一波的犯罪活动。对他来说,犯罪以及引来宿敌蝙蝠侠(威尔·阿奈特 Will Arnett 配音)是无比快乐的事情,可是猛男蝙蝠侠不仅轻松解决掉这群小坏蛋,还根本不将小丑放在眼里。蝙蝠侠的无情言语,深深刺痛了小丑的心。在此之后,孤独的蝙蝠侠收养了罗宾(迈克尔·塞拉 Michael Cera 配音),看上了美丽的女警长芭芭拉,只不过他始终拒绝别人走入他的内心世界。
  另一方面,自尊严重受挫的小丑从天空监狱找来了霸王龙、迅猛龙、索伦、伏地魔、金刚等史上著名的大坏蛋,他要狠狠地打击自高自大的蝙蝠侠……

◎获奖情况

  第26届MTV电影奖  (2017)
  MTV电影奖 最佳喜剧表演(提名) 威尔·阿奈特

General
Complete name                  : H:\4K@电影\Lego Franchise 4K UHD Collection (2160p HDR BDRip x265 10bit AC3) [4KLiGHT]
Format                         : Matroska
Format version                 : Version 4
File size                      : 4.05 GiB
Duration                       : 1 h 44 min
Overall bit rate               : 5 555 kb/s
Movie name                     : The Lego Batman Movie (2017) MULTi VFF 2160p 10bit 4KLight HDR BluRay AC3 5.1 x265-QTZ
Encoded date                   : UTC 2020-05-21 14:00:10
Writing application            : mkvmerge v44.0.0 ('Domino') 64-bit
Writing library                : libebml v1.3.10 + libmatroska v1.5.2

Video
ID                             : 1
Format                         : HEVC
Format/Info                    : High Efficiency Video Coding
Format profile                 : Main 10@L5.1@Main
HDR format                     : SMPTE ST 2086, HDR10 compatible
Codec ID                       : V_MPEGH/ISO/HEVC
Duration                       : 1 h 44 min
Bit rate                       : 4 164 kb/s
Width                          : 3 840 pixels
Height                         : 1 600 pixels
Display aspect ratio           : 2.40:1
Frame rate mode                : Constant
Frame rate                     : 23.976 (24000/1001) FPS
Color space                    : YUV
Chroma subsampling             : 4:2:0 (Type 2)
Bit depth                      : 10 bits
Bits/(Pixel*Frame)             : 0.028
Stream size                    : 3.04 GiB (75%)
Default                        : Yes
Forced                         : No
Color range                    : Limited
Color primaries                : BT.2020
Transfer characteristics       : PQ
Matrix coefficients            : BT.2020 non-constant
Mastering display color primar : Display P3
Mastering display luminance    : min: 0.0050 cd/m2, max: 4000 cd/m2
Maximum Content Light Level    : 500 cd/m2
Maximum Frame-Average Light Le : 200 cd/m2

Audio #1
ID                             : 2
Format                         : AC-3
Format/Info                    : Audio Coding 3
Commercial name                : Dolby Digital
Codec ID                       : A_AC3
Duration                       : 1 h 44 min
Bit rate mode                  : Constant
Bit rate                       : 640 kb/s
Channel(s)                     : 6 channels
Channel layout                 : L R C LFE Ls Rs
Sampling rate                  : 48.0 kHz
Frame rate                     : 31.250 FPS (1536 SPF)
Compression mode               : Lossy
Stream size                    : 478 MiB (12%)
Title                          : FR VFF : AC3 5.1
Language                       : French
Service kind                   : Complete Main
Default                        : Yes
Forced                         : No

Audio #2
ID                             : 3
Format                         : AC-3
Format/Info                    : Audio Coding 3
Commercial name                : Dolby Digital
Codec ID                       : A_AC3
Duration                       : 1 h 44 min
Bit rate mode                  : Constant
Bit rate                       : 640 kb/s
Channel(s)                     : 6 channels
Channel layout                 : L R C LFE Ls Rs
Sampling rate                  : 48.0 kHz
Frame rate                     : 31.250 FPS (1536 SPF)
Compression mode               : Lossy
Stream size                    : 478 MiB (12%)
Title                          : ENG VO : AC3 5.1
Language                       : English
Service kind                   : Complete Main
Default                        : No
Forced                         : No

Text #1
ID                             : 4
Format                         : UTF-8
Codec ID                       : S_TEXT/UTF8
Codec ID/Info                  : UTF-8 Plain Text
Title                          : FR Forced : SRT
Language                       : French
Default                        : Yes
Forced                         : Yes

Text #2
ID                             : 5
Format                         : UTF-8
Codec ID                       : S_TEXT/UTF8
Codec ID/Info                  : UTF-8 Plain Text
Title                          : FR Full : SRT
Language                       : French
Default                        : No
Forced                         : No

Text #3
ID                             : 6
Format                         : UTF-8
Codec ID                       : S_TEXT/UTF8
Codec ID/Info                  : UTF-8 Plain Text
Title                          : ENG Full : SRT
Language                       : English
Default                        : No
Forced                         : No

Text #4
ID                             : 7
Format                         : PGS
Muxing mode                    : zlib
Codec ID                       : S_HDMV/PGS
Codec ID/Info                  : Picture based subtitle format used on BDs/HD-DVDs
Title                          : FR Forced : PGS
Language                       : French
Default                        : No
Forced                         : Yes

Text #5
ID                             : 8
Format                         : PGS
Muxing mode                    : zlib
Codec ID                       : S_HDMV/PGS
Codec ID/Info                  : Picture based subtitle format used on BDs/HD-DVDs
Title                          : FR Full : PGS
Language                       : French
Default                        : No
Forced                         : No

Menu
00:00:00.000                   : :Chapter 01
00:12:54.523                   : :Chapter 02
00:22:55.791                   : :Chapter 03
00:32:30.698                   : :Chapter 04
00:40:56.537                   : :Chapter 05
00:50:10.590                   : :Chapter 06
01:00:24.454                   : :Chapter 07
01:10:57.503                   : :Chapter 08
01:19:28.972                   : :Chapter 09
01:27:16.397                   : :Chapter 10
01:36:25.154                   : :Chapter 11



Lego Franchise 4K UHD Collection (2160p HDR BDRip x265 10bit AC3) [4KLiGHT]-13.59GB

乐高幻影忍者大电影The Lego Ninjago Movie (2017) MULTi VFF 2160p 10bit 4KLight HDR BluRay AC3 5.1 x265-QTZ-3.85GB
乐高大电影2The Lego Movie 2 The Second Part (2019) MULTi VFF 2160p 10bit 4KLight HDR BluRay AC3 5.1 x265-QTZ-2.64GB
乐高大电影The Lego Movie (2014) MULTi VFF 2160p 10bit 4KLight HDR BluRay AC3 5.1 x265-QTZ-3.04GB
乐高蝙蝠侠大电影The Lego Batman Movie (2017) MULTi VFF 2160p 10bit 4KLight HDR BluRay AC3 5.1 x265-QTZ-4.05GB



4K蓝光资源,新种推荐使用qBittorrent、uTorrent等下载软件,有条件的推荐115更好的下载软件!

[乐高大电影]四部曲--4K蓝光版本2022大汇聚第一聚Lego Franchise 4K UHD Collection (2160p HDR BDRip x265 10bit AC3) [4KLiGHT]
****此区域为收费内容****    需支付 50 金币后可查看立即购买



1心,爱心.gif
12263-1.jpg

上一篇:大逃亡 / The Great Escape (1963) 4K蓝光[原盘+REMUX]版本下载
下一篇:哈雷兄弟 / Juice (1992) 4K蓝光[原盘+REMUX]版本下载
回复

使用道具 举报

57

主题

1540

帖子

4470

积分

4K家园VIP

Rank: 9Rank: 9Rank: 9

积分
4470
发表于 2022-1-15 20:26:56 | 显示全部楼层
多发些资源啊
回复 支持 反对

使用道具 举报

0

主题

8229

帖子

1万

积分

4K家园VIP

Rank: 9Rank: 9Rank: 9

积分
18809
发表于 2022-1-15 21:37:25 | 显示全部楼层
太好啦&萬分感謝版主的無私發佈分享%
回复 支持 反对

使用道具 举报

2

主题

1404

帖子

4072

积分

4K家园VIP

Rank: 9Rank: 9Rank: 9

积分
4072
发表于 2022-1-16 00:17:39 | 显示全部楼层
4K家园资源最近貌似越来越多了
回复 支持 反对

使用道具 举报

4

主题

1326

帖子

3998

积分

4K家园VIP

Rank: 9Rank: 9Rank: 9

积分
3998
发表于 2022-1-16 02:13:58 | 显示全部楼层
4K家园资源最近貌似越来越多了
回复 支持 反对

使用道具 举报

0

主题

1183

帖子

3563

积分

4K家园VIP

Rank: 9Rank: 9Rank: 9

积分
3563
发表于 2022-1-16 03:29:00 | 显示全部楼层
楼主这资源不错,我收藏了
回复 支持 反对

使用道具 举报

2

主题

1670

帖子

4628

积分

4K家园VIP

Rank: 9Rank: 9Rank: 9

积分
4628
发表于 2022-1-16 03:50:33 来自手机 | 显示全部楼层
4K家园不错,希望这种资源越多越好
回复 支持 反对

使用道具 举报

0

主题

121

帖子

540

积分

新手上路

Rank: 1

积分
540
发表于 2022-1-16 20:34:48 | 显示全部楼层
太好啦&萬分感謝版主的無私發佈分享%
回复 支持 反对

使用道具 举报

0

主题

71

帖子

233

积分

4K家园VIP

Rank: 9Rank: 9Rank: 9

积分
233
发表于 2022-4-5 11:47:33 | 显示全部楼层
希望这种资源越多越好
回复 支持 反对

使用道具 举报

您需要登录后才可以回帖 登录 | 立即注册

本版积分规则

精彩图文
Archiver|手机版|TAG|Sitemap|新帖|专题|联系我们:邮箱: 4kjia.com@gmail.com   

4k家园   ©2019