[青春及后果] 4K高清+2K高清下载/第一季全08集打包/英语无字

[复制链接]
查看: 1562|回复: 9

2561

主题

2598

帖子

2万

积分

超级版主

Rank: 8Rank: 8

积分
22472
发表于 2019-2-13 12:30:00 | 显示全部楼层 |阅读模式
p2518052442.webp.jpg

◎译  名 青春及后果
◎片  名 Youth and Consequences
◎年  代 2018
◎产  地 美国
◎类  别 剧情 / 喜剧
◎语  言 英语
◎上映日期 2018-03-07(美国)
◎IMDb评分 7.4/10 from 321 users
◎集  数 8
◎片  长 30
◎导  演 Jason Ubaldi
◎编  剧 Jason Ubaldi
◎主  演 安娜·阿卡娜 Anna Akana
      肖恩·戈兰迪洛 Sean Grandillo
      佩珀·柯达 Piper Curda
      莎凡娜·杰德 Savannah Jayde
      Teresa Duran-Norvick
      Sophie Reynolds
      卡拉·罗伊斯特 Kara Royster
      麦克·格雷 Mike Gray
      玛西亚·克劳斯 Marcia Cross
      加利·艾尔维斯 Cary Elwes
      素玛立·蒙塔诺 Sumalee Montano
      Ashley Parker
      卡兰·布拉尔 Karan Brar
      Allie Rae Treharne
      Jennifer Grzybowski
      莫西斯·斯托姆 Moses Storm
      奥斯丁·R·格兰特 Austin R. Grant



◎简  介  

  在罗切斯特高中,一个少女在学校体系中为权力而战。

Video
ID : 1
Format : AVC
Format/Info : Advanced Video Codec
Format profile : [email protected]
Format settings : CABAC / 2 Ref Frames
Format settings, CABAC : Yes
Format settings, ReFrames : 2 frames
Codec ID : V_MPEG4/ISO/AVC
Duration : 34 min 23 s
Bit rate : 2 647 kb/s
Width : 1 920 pixels
Height : 1 080 pixels
Display aspect ratio : 16:9
Frame rate mode : Constant
Frame rate : 23.976 (24000/1001) FPS
Color space : YUV
Chroma subsampling : 4:2:0
Bit depth : 8 bits
Scan type : Progressive
Bits/(Pixel*Frame) : 0.053
Stream size : 651 MiB (87%)
Language : English
Default : Yes
Forced : No
Color range : Limited
Color primaries : BT.709
Transfer characteristics : BT.709
Matrix coefficients : BT.709

Audio
ID : 2
Format : AAC LC
Format/Info : Advanced Audio Codec Low Complexity
Codec ID : A_AAC-2
Duration : 34 min 23 s
Bit rate : 384 kb/s
Channel(s) : 6 channels
Channel layout : C L R Ls Rs LFE
Sampling rate : 48.0 kHz
Frame rate : 46.875 FPS (1024 SPF)
Compression mode : Lossy
Stream size : 94.4 MiB (13%)
Language : English
Default : Yes
Forced : No


590851f238556674b40fe5a5c37e37f0.jpg cf4194e81c300ba9cc78d064d87307c9.jpg


游客,如果您要查看本帖隐藏内容请回复

游客,如果您要查看本帖隐藏内容请回复


上一篇:[龙猫 4K修复版] 4K高清+2K高清下载/俄语中字/纯净版
下一篇:[苍穹浩瀚/太空无垠] 4K高清下载/第三季全13集打包/英语无字
回复

使用道具 举报

0

主题

645

帖子

1947

积分

4K家园VIP

Rank: 9Rank: 9Rank: 9

积分
1947
发表于 2019-2-13 12:30:06 | 显示全部楼层
锄禾日当午,发帖真辛苦。谁知坛中餐,帖帖皆辛苦!
回复 支持 反对

使用道具 举报

0

主题

18

帖子

91

积分

新手上路

Rank: 1

积分
91
发表于 2019-2-13 21:01:37 | 显示全部楼层

锄禾日当午,发帖真辛苦。谁知坛中餐,帖帖皆辛苦!
回复 支持 反对

使用道具 举报

0

主题

44

帖子

268

积分

新手上路

Rank: 1

积分
268
发表于 2019-2-14 02:04:45 | 显示全部楼层

这个帖子不回对不起自己!我想我是一天也不能离开4K家园。
回复 支持 反对

使用道具 举报

0

主题

2

帖子

19

积分

新手上路

Rank: 1

积分
19
发表于 2019-2-14 02:18:59 | 显示全部楼层
我就是看看,不说话可以吗?
回复 支持 反对

使用道具 举报

24

主题

924

帖子

2620

积分

4K家园VIP

Rank: 9Rank: 9Rank: 9

积分
2620
发表于 7 天前 | 显示全部楼层
不错 支持一个了
回复 支持 反对

使用道具 举报

0

主题

1032

帖子

2700

积分

4K家园VIP

Rank: 9Rank: 9Rank: 9

积分
2700
发表于 6 天前 | 显示全部楼层
纯粹路过,没任何兴趣,仅仅是看在老用户份上回复一下
回复 支持 反对

使用道具 举报

0

主题

1030

帖子

2716

积分

4K家园VIP

Rank: 9Rank: 9Rank: 9

积分
2716
发表于 6 天前 | 显示全部楼层
围观 围观 沙发在哪里!!!
回复 支持 反对

使用道具 举报

0

主题

814

帖子

2454

积分

4K家园VIP

Rank: 9Rank: 9Rank: 9

积分
2454
发表于 5 天前 来自手机 | 显示全部楼层
围观 围观 沙发在哪里!!!
回复 支持 反对

使用道具 举报

0

主题

3

帖子

29

积分

新手上路

Rank: 1

积分
29
发表于 前天 03:03 | 显示全部楼层
不错!谢谢分享!!!
回复 支持 反对

使用道具 举报

您需要登录后才可以回帖 登录 | 立即注册

本版积分规则

精彩图文
关闭

站长推荐上一条 /2 下一条

4k家园   ©2015-2019