[笔写青春//PEN15]4K-高清下载/第一季/全10集打包/英语英字

[复制链接]
查看: 836|回复: 7

3062

主题

3121

帖子

2万

积分

超级版主

Rank: 8Rank: 8

积分
25579
 楼主| 发表于 7 天前 | 显示全部楼层 |阅读模式
048d3cdb30ddb83b576ffdd45f7d4677.jpg
◎译  名 笔写青春 / 思春期未满 / 躁欲青春 / 青春期的我们
◎片  名 PEN15
◎年  代 2018
◎产  地 美国
◎类  别 喜剧
◎语  言 英语
◎上映日期 2018-02-08(美国)
◎IMDb评分 6.7/10 from 78 users
◎集  数 10
◎片  长 28分钟
◎导  演 Dan Longino / Andy DeYoung / Sam Zvibleman
◎主  演 玛雅·厄斯金 Maya Erskine
      安娜·康克尔 Anna Konkle



◎简  介  

  Hulu 预订成人向校园喜剧《PEN15》,每集三十分钟共十集,由《随性所欲》女星Maya Erskine与《私家法医》女星Anna Konkle共同主创与主演,两人将在剧中演出十三岁的自己。
《PEN15》背景设定在 2000 年的某间中学,描述正值发育期的十三岁主角(美国 校园里有个梗,如果被问「你愿不愿意加入pen15俱乐部?」,如果说愿意对方就会恶作剧地把「penis」写在你手上)。

Video
ID : 1
Format : HEVC
Format/Info : High Efficiency Video Coding
Format profile : Main [email protected]@Main
Codec ID : V_MPEGH/ISO/HEVC
Duration : 28 min 39 s
Bit rate : 14.3 Mb/s
Width : 3 840 pixels
Height : 2 160 pixels
Display aspect ratio : 16:9
Frame rate mode : Constant
Frame rate : 23.976 (23976/1000) FPS
Color space : YUV
Chroma subsampling : 4:2:0
Bit depth : 10 bits
Bits/(Pixel*Frame) : 0.072
Stream size : 2.86 GiB (95%)
Language : English
Default : Yes
Forced : No
Color range : Limited
Color primaries : BT.709
Transfer characteristics : BT.709
Matrix coefficients : BT.709

Audio
ID : 2
Format : E-AC-3
Format/Info : Enhanced AC-3
Commercial name : Dolby Digital Plus
Codec ID : A_EAC3
Duration : 28 min 39 s
Bit rate mode : Constant
Bit rate : 448 kb/s
Channel(s) : 6 channels
Channel layout : L R C LFE Ls Rs
Sampling rate : 48.0 kHz
Frame rate : 31.250 FPS (1536 SPF)
Compression mode : Lossy
Stream size : 91.8 MiB (3%)
Language : English
Service kind : Complete Main
Default : Yes
Forced : No

Text #1
ID : 3
Format : UTF-8
Codec ID : S_TEXT/UTF8
Codec ID/Info : UTF-8 Plain Text
Title : English
Language : English
Default : No
Forced : No

Text #2
ID : 4
Format : UTF-8
Codec ID : S_TEXT/UTF8
Codec ID/Info : UTF-8 Plain Text
Title : English (SDH)
Language : English
Default : No
Forced : No


277eb41821ea4d35b8ca5c40a4f6b1cd.jpg fb4a2fc9271a8cb7ede8dd2777229527.jpg


游客,如果您要查看本帖隐藏内容请回复


上一篇:《三方国界》2160p.WEBRip.X264-DEFLATE【4K原版 31.76 GB】
下一篇:[海王 Aquaman][IMAX版]纯净版4K-高清/国英双语特效字幕/10.46GB
回复

使用道具 举报

0

主题

1036

帖子

2762

积分

4K家园VIP

Rank: 9Rank: 9Rank: 9

积分
2762
发表于 7 天前 | 显示全部楼层
多谢楼主分享
回复 支持 反对

使用道具 举报

0

主题

4

帖子

25

积分

新手上路

Rank: 1

积分
25
发表于 7 天前 | 显示全部楼层
感谢楼主的分享
回复 支持 反对

使用道具 举报

0

主题

20

帖子

108

积分

新手上路

Rank: 1

积分
108
发表于 7 天前 | 显示全部楼层

多谢楼主分享
回复 支持 反对

使用道具 举报

0

主题

817

帖子

2465

积分

4K家园VIP

Rank: 9Rank: 9Rank: 9

积分
2465
发表于 6 天前 | 显示全部楼层
好像还可以
回复 支持 反对

使用道具 举报

0

主题

994

帖子

2596

积分

中级会员

Rank: 4

积分
2596
发表于 5 天前 | 显示全部楼层
鼎力支持!!
回复 支持 反对

使用道具 举报

24

主题

955

帖子

2619

积分

4K家园VIP

Rank: 9Rank: 9Rank: 9

积分
2619
发表于 4 天前 | 显示全部楼层
路过
回复 支持 反对

使用道具 举报

0

主题

797

帖子

2403

积分

4K家园VIP

Rank: 9Rank: 9Rank: 9

积分
2403
发表于 3 天前 | 显示全部楼层
支持楼主,用户楼主,楼主英明呀!!!
回复 支持 反对

使用道具 举报

您需要登录后才可以回帖 登录 | 立即注册

本版积分规则

精彩图文
关闭

站长推荐上一条 /2 下一条

4k家园   ©2015-2019