[国家地理] [4K国家地理] 弗洛雷斯:水之岛 (2021) [2160P/MKV/462MB

[复制链接]

2770

主题

3128

帖子

2万

积分

超级版主

Rank: 8Rank: 8

积分
26227
 楼主| 发表于 2022-3-30 21:41:12 | 显示全部楼层 |阅读模式

弗洛雷斯(462MB) (2021) WEBRip 2160p.mkv_20220316_114625.819.jpg 弗洛雷斯(462MB) (2021) WEBRip 2160p.mkv_20220316_114636.628.jpg 弗洛雷斯(462MB) (2021) WEBRip 2160p.mkv_20220316_114648.100.jpg 弗洛雷斯(462MB) (2021) WEBRip 2160p.mkv_20220316_114704.131.jpg 弗洛雷斯(462MB) (2021) WEBRip 2160p.mkv_20220316_114712.891.jpg 弗洛雷斯(462MB) (2021) WEBRip 2160p.mkv_20220316_114724.460.jpg

关于信息
片名:弗洛雷斯
上映年份: 2021
国家:印度尼西亚
持续时间: 00 : 03 : 38
类型: 物种
导演:钉住你的脚步

关于电影:

       弗洛雷斯是一座水之岛:瀑布、湖泊、溪流和岩石提供令人难忘的景色和印象,似乎集中在散布在其他亚速尔群岛的所有自然美景。

General
Complete name                  : E:\4K@国家地理\弗洛雷斯:水之岛(462MB) (2021) WEBRip 2160p.mkv
Format                         : Matroska
Format version                 : Version 4
File size                      : 463 MiB
Duration                       : 3 min 38 s
Overall bit rate               : 17.8 Mb/s
Encoded date                   : UTC 2021-09-17 10:04:56
Writing application            : mkvmerge v61.0.0 ('So') 64-bit
Writing library                : libebml v1.4.2 + libmatroska v1.6.4 / Lavf58.29.100

Video
ID                             : 1
Format                         : VP9
Codec ID                       : V_VP9
Duration                       : 3 min 38 s
Bit rate                       : 17.7 Mb/s
Width                          : 3 840 pixels
Height                         : 2 160 pixels
Display aspect ratio           : 16:9
Frame rate mode                : Constant
Frame rate                     : 29.970 (30000/1001) FPS
Color space                    : YUV
Bits/(Pixel*Frame)             : 0.071
Stream size                    : 459 MiB (99%)
Default                        : Yes
Forced                         : No
Color range                    : Limited
Color primaries                : BT.709
Transfer characteristics       : BT.709
Matrix coefficients            : BT.709

Audio
ID                             : 2
Format                         : Opus
Codec ID                       : A_OPUS
Duration                       : 3 min 38 s
Bit rate                       : 131 kb/s
Channel(s)                     : 2 channels
Channel layout                 : L R
Sampling rate                  : 48.0 kHz
Frame rate                     : 50.000 FPS (960 SPF)
Bit depth                      : 32 bits
Compression mode               : Lossy
Stream size                    : 3.41 MiB (1%)
Default                        : Yes
Forced                         : No
下载地址:

****此区域为收费内容****    需支付 15 金币后可查看立即购买






上一篇:[4K国家地理] 高山漫步 2 (2020) [2160P/MKV/324MB]
下一篇:[4K国家地理] 飞越冰岛火山 (2021) [2160P/MKV/370MB
回复

使用道具 举报

3

主题

1412

帖子

4062

积分

4K家园VIP

Rank: 9Rank: 9Rank: 9

积分
4062
发表于 2022-3-30 21:41:19 | 显示全部楼层
看着好像不错
回复 支持 反对

使用道具 举报

0

主题

8230

帖子

1万

积分

4K家园VIP

Rank: 9Rank: 9Rank: 9

积分
18830
发表于 2022-3-30 23:46:49 | 显示全部楼层
印度尼西亞弗洛雷斯☆水之島4k
回复 支持 反对

使用道具 举报

0

主题

1691

帖子

4625

积分

4K家园VIP

Rank: 9Rank: 9Rank: 9

积分
4625
发表于 2022-4-11 12:30:31 | 显示全部楼层
感谢推荐,确实不错
回复 支持 反对

使用道具 举报

0

主题

1566

帖子

4298

积分

4K家园VIP

Rank: 9Rank: 9Rank: 9

积分
4298
发表于 2022-4-13 09:17:37 | 显示全部楼层
还有没有别的资源,多分享些
回复 支持 反对

使用道具 举报

0

主题

43

帖子

80

积分

新手上路

Rank: 1

积分
80
发表于 2022-4-13 23:01:47 | 显示全部楼层

谢谢分享!!!
回复

使用道具 举报

0

主题

5

帖子

18

积分

新手上路

Rank: 1

积分
18
发表于 2022-4-16 00:50:27 | 显示全部楼层
感谢分享
回复

使用道具 举报

2

主题

1404

帖子

4072

积分

4K家园VIP

Rank: 9Rank: 9Rank: 9

积分
4072
发表于 2022-4-18 12:27:59 | 显示全部楼层
路过
回复 支持 反对

使用道具 举报

2

主题

1349

帖子

3867

积分

4K家园VIP

Rank: 9Rank: 9Rank: 9

积分
3867
发表于 2022-4-19 02:46:50 | 显示全部楼层
我只是路过,不发表意见
回复 支持 反对

使用道具 举报

您需要登录后才可以回帖 登录 | 立即注册

本版积分规则

精彩图文
Archiver|手机版|TAG|Sitemap|新帖|专题|联系我们:邮箱: 4kjia.com@gmail.com   

4k家园   ©2019