[国家地理] [4K国家地理] 飞越冰岛火山 (2021) [2160P/MKV/370MB

[复制链接]

2770

主题

3128

帖子

2万

积分

超级版主

Rank: 8Rank: 8

积分
26227
 楼主| 发表于 2022-4-6 14:54:37 | 显示全部楼层 |阅读模式

飞入冰岛火山(370MB) (2021) WEBRip 2160p.mkv_20220316_115318.116.jpg 飞入冰岛火山(370MB) (2021) WEBRip 2160p.mkv_20220316_115324.219.jpg 飞入冰岛火山(370MB) (2021) WEBRip 2160p.mkv_20220316_115329.979.jpg 飞入冰岛火山(370MB) (2021) WEBRip 2160p.mkv_20220316_115341.004.jpg 飞入冰岛火山(370MB) (2021) WEBRip 2160p.mkv_20220316_115346.251.jpg 飞入冰岛火山(370MB) (2021) WEBRip 2160p.mkv_20220316_115355.868.jpg

影片信息
片名:飞越冰岛火山
上映年份: 2021
国家:冰岛
时长: 00 : 03 : 42
类型: 物种
导演:约书亚·特纳

电影简介:

       我直接飞越熔岩流,然后进入一个充满巨大熔岩的火山口湖。

General
Complete name                  : E:\4K@国家地理\飞越冰岛火山(370MB) (2021) WEBRip 2160p.mkv
Format                         : Matroska
Format version                 : Version 4
File size                      : 370 MiB
Duration                       : 3 min 42 s
Overall bit rate               : 13.9 Mb/s
Encoded date                   : UTC 2021-09-25 18:59:44
Writing application            : mkvmerge v61.0.0 ('So') 64-bit
Writing library                : libebml v1.4.2 + libmatroska v1.6.4 / Lavf58.29.100

Video
ID                             : 1
Format                         : VP9
Codec ID                       : V_VP9
Duration                       : 3 min 42 s
Bit rate                       : 13.8 Mb/s
Width                          : 3 840 pixels
Height                         : 2 160 pixels
Display aspect ratio           : 16:9
Frame rate mode                : Variable
Frame rate                     : 27.310 FPS
Color space                    : YUV
Bits/(Pixel*Frame)             : 0.061
Stream size                    : 367 MiB (99%)
Default                        : Yes
Forced                         : No
Color range                    : Limited
Color primaries                : BT.709
Transfer characteristics       : BT.709
Matrix coefficients            : BT.709

Audio
ID                             : 2
Format                         : AAC LC
Format/Info                    : Advanced Audio Codec Low Complexity
Codec ID                       : A_AAC-2
Duration                       : 3 min 42 s
Bit rate                       : 128 kb/s
Channel(s)                     : 2 channels
Channel layout                 : L R
Sampling rate                  : 44.1 kHz
Frame rate                     : 43.066 FPS (1024 SPF)
Compression mode               : Lossy
Stream size                    : 3.40 MiB (1%)
Default                        : Yes
Forced                         : No


下载地址:

****此区域为收费内容****    需支付 15 金币后可查看立即购买






上一篇:[4K国家地理] 弗洛雷斯:水之岛 (2021) [2160P/MKV/462MB
下一篇:[4K国家地理] 多洛米蒂山的自行车环游 (2021) [2160P/MKV/377MB]
回复

使用道具 举报

51

主题

1400

帖子

4032

积分

4K家园VIP

Rank: 9Rank: 9Rank: 9

积分
4032
发表于 2022-4-6 14:54:41 | 显示全部楼层
这么强,支持楼主,佩服
回复 支持 反对

使用道具 举报

0

主题

8230

帖子

1万

积分

4K家园VIP

Rank: 9Rank: 9Rank: 9

积分
18830
发表于 2022-4-6 16:19:02 | 显示全部楼层
飛越冰島火山4k
回复 支持 反对

使用道具 举报

4

主题

1306

帖子

3938

积分

4K家园VIP

Rank: 9Rank: 9Rank: 9

积分
3938
发表于 2022-4-8 22:51:36 | 显示全部楼层
LZ帖子不给力,勉强给回复下吧
回复 支持 反对

使用道具 举报

49

主题

1471

帖子

4215

积分

4K家园VIP

Rank: 9Rank: 9Rank: 9

积分
4215
发表于 2022-4-9 04:18:38 来自手机 | 显示全部楼层
支持楼主,用户楼主,楼主英明呀!!!
回复 支持 反对

使用道具 举报

1

主题

1375

帖子

4145

积分

4K家园VIP

Rank: 9Rank: 9Rank: 9

积分
4145
发表于 2022-4-10 16:50:17 | 显示全部楼层
呵呵,低调,低调!
回复 支持 反对

使用道具 举报

3

主题

1607

帖子

4417

积分

4K家园VIP

Rank: 9Rank: 9Rank: 9

积分
4417
发表于 2022-4-11 21:00:10 | 显示全部楼层
专业抢沙发的!哈哈
回复 支持 反对

使用道具 举报

0

主题

7

帖子

24

积分

新手上路

Rank: 1

积分
24
发表于 2022-5-6 19:57:40 | 显示全部楼层
V的傻傻的发呆打发打发
回复 支持 反对

使用道具 举报

您需要登录后才可以回帖 登录 | 立即注册

本版积分规则

精彩图文
Archiver|手机版|TAG|Sitemap|新帖|专题|联系我们:邮箱: 4kjia.com@gmail.com   

4k家园   ©2019