[国家地理] [4K国家地理] 多洛米蒂山的自行车环游 (2021) [2160P/MKV/377MB]

[复制链接]

2769

主题

3127

帖子

2万

积分

超级版主

Rank: 8Rank: 8

积分
26207
 楼主| 发表于 2022-5-7 20:48:03 | 显示全部楼层 |阅读模式
本帖最后由 叽里呱啦 于 2022-5-7 20:48 编辑

多洛米蒂山的自行车 (2021) WEBRip 2160p.mkv_20220316_120112.452.jpg 多洛米蒂山的自行车 (2021) WEBRip 2160p.mkv_20220316_120127.124.jpg 多洛米蒂山的自行车 (2021) WEBRip 2160p.mkv_20220316_120131.811.jpg 多洛米蒂山的自行车 (2021) WEBRip 2160p.mkv_20220316_120138.627.jpg 多洛米蒂山的自行车 (2021) WEBRip 2160p.mkv_20220316_120144.203.jpg 多洛米蒂山的自行车 (2021) WEBRip 2160p.mkv_20220316_120158.339.jpg

关于信息
标题:自行车在多洛米蒂环游
国家:意大利
工作室: Meli
时长: 00 : 03 : 05
发行时间: 2021
类型: 种

关于影片:

       自行车在多洛米蒂。

General
Complete name                  : E:\4K@电影 4K@MV\国家地理\多洛米蒂山的自行车 (2021) WEBRip 2160p.mkv
Format                         : Matroska
Format version                 : Version 4
File size                      : 377 MiB
Duration                       : 3 min 5 s
Overall bit rate               : 17.0 Mb/s
Encoded date                   : UTC 2021-10-16 16:02:54
Writing application            : mkvmerge v62.0.0 ('Apollo') 64-bit
Writing library                : libebml v1.4.2 + libmatroska v1.6.4 / IDMmkvlib0.1
Language                       : und

Video
ID                             : 1
Format                         : VP9
Codec ID                       : V_VP9
Duration                       : 3 min 5 s
Bit rate                       : 16.9 Mb/s
Width                          : 3 840 pixels
Height                         : 2 160 pixels
Display aspect ratio           : 16:9
Frame rate mode                : Variable
Frame rate                     : 29.970 (29970/1000) FPS
Bits/(Pixel*Frame)             : 0.068
Stream size                    : 374 MiB (99%)
Default                        : Yes
Forced                         : No

Audio
ID                             : 2
Format                         : Opus
Codec ID                       : A_OPUS
Duration                       : 3 min 5 s
Bit rate                       : 127 kb/s
Channel(s)                     : 2 channels
Channel layout                 : L R
Sampling rate                  : 48.0 kHz
Frame rate                     : 50.000 FPS (960 SPF)
Bit depth                      : 32 bits
Compression mode               : Lossy
Stream size                    : 2.82 MiB (1%)
Default                        : Yes
Forced                         : No

下载地址

****此区域为收费内容****    需支付 15 金币后可查看立即购买





上一篇:[4K国家地理] 飞越冰岛火山 (2021) [2160P/MKV/370MB
下一篇:[4K国家地理] 冬天的埃菲尔和阿登 (2021) [2160P/MKV/638MB]
回复

使用道具 举报

14

主题

1236

帖子

3698

积分

4K家园VIP

Rank: 9Rank: 9Rank: 9

积分
3698
发表于 2022-5-7 20:48:11 | 显示全部楼层
呵呵。。。
回复 支持 反对

使用道具 举报

0

主题

8229

帖子

1万

积分

4K家园VIP

Rank: 9Rank: 9Rank: 9

积分
18818
发表于 2022-5-8 08:48:20 | 显示全部楼层
太好啦&萬分感謝版主的無私發佈分享%
回复 支持 反对

使用道具 举报

45

主题

1475

帖子

4273

积分

4K家园VIP

Rank: 9Rank: 9Rank: 9

积分
4273
发表于 5 天前 | 显示全部楼层
为毛老子总也抢不到沙发?!!
回复 支持 反对

使用道具 举报

0

主题

1691

帖子

4625

积分

4K家园VIP

Rank: 9Rank: 9Rank: 9

积分
4625
发表于 昨天 17:59 | 显示全部楼层
佩服佩服!
回复 支持 反对

使用道具 举报

您需要登录后才可以回帖 登录 | 立即注册

本版积分规则

精彩图文
Archiver|手机版|TAG|Sitemap|新帖|专题|联系我们:邮箱: 4kjia.com@gmail.com   

4k家园   ©2019