[国家地理] [4K国家地理] 冬天的埃菲尔和阿登 (2021) [2160P/MKV/638MB]

[复制链接]

2770

主题

3128

帖子

2万

积分

超级版主

Rank: 8Rank: 8

积分
26227
 楼主| 发表于 2022-4-10 10:57:27 | 显示全部楼层 |阅读模式

冬天的埃菲尔和阿登(638MB) (2021) WEBRip 2160p.mkv_20220316_120925.308.jpg 冬天的埃菲尔和阿登(638MB) (2021) WEBRip 2160p.mkv_20220316_120933.108.jpg 冬天的埃菲尔和阿登(638MB) (2021) WEBRip 2160p.mkv_20220316_120940.212.jpg 冬天的埃菲尔和阿登(638MB) (2021) WEBRip 2160p.mkv_20220316_121003.636.jpg 冬天的埃菲尔和阿登(638MB) (2021) WEBRip 2160p.mkv_20220316_121012.508.jpg 冬天的埃菲尔和阿登(638MB) (2021) WEBRip 2160p.mkv_20220316_121024.508.jpg

影片信息
片名:冬天的埃菲尔和阿登
上映时间: 2021
国家:德国、比利时
时长: 00:04 : 37
类型: 物种
导演: Galliano Anker

影片简介:

       精选被雪覆盖的美丽地方。享受你的冬季仙境!

General
Complete name                  : E:\4K@国家地理\冬天的埃菲尔和阿登(638MB) (2021) WEBRip 2160p.mkv
Format                         : Matroska
Format version                 : Version 4
File size                      : 638 MiB
Duration                       : 4 min 37 s
Overall bit rate               : 19.3 Mb/s
Encoded date                   : UTC 2021-09-23 14:55:54
Writing application            : mkvmerge v61.0.0 ('So') 64-bit
Writing library                : libebml v1.4.2 + libmatroska v1.6.4 / Lavf58.29.100

Video
ID                             : 1
Format                         : VP9
Codec ID                       : V_VP9
Duration                       : 4 min 37 s
Bit rate                       : 19.1 Mb/s
Width                          : 3 840 pixels
Height                         : 2 160 pixels
Display aspect ratio           : 16:9
Frame rate mode                : Constant
Frame rate                     : 29.970 (30000/1001) FPS
Color space                    : YUV
Bits/(Pixel*Frame)             : 0.077
Stream size                    : 634 MiB (99%)
Default                        : Yes
Forced                         : No
Color range                    : Limited
Color primaries                : BT.709
Transfer characteristics       : BT.709
Matrix coefficients            : BT.709

Audio
ID                             : 2
Format                         : Opus
Codec ID                       : A_OPUS
Duration                       : 4 min 37 s
Bit rate                       : 128 kb/s
Channel(s)                     : 2 channels
Channel layout                 : L R
Sampling rate                  : 48.0 kHz
Frame rate                     : 50.001 FPS (960 SPF)
Bit depth                      : 32 bits
Compression mode               : Lossy
Stream size                    : 4.23 MiB (1%)
Default                        : Yes
Forced                         : No
下载地址

****此区域为收费内容****    需支付 15 金币后可查看立即购买





上一篇:[4K国家地理] 多洛米蒂山的自行车环游 (2021) [2160P/MKV/377MB]
下一篇:[4K国家地理] 锡罗斯岛 (2021) [2160P/MKV/473MB]
回复

使用道具 举报

57

主题

1461

帖子

4219

积分

4K家园VIP

Rank: 9Rank: 9Rank: 9

积分
4219
发表于 2022-4-10 10:57:32 | 显示全部楼层
学习下
回复 支持 反对

使用道具 举报

0

主题

8230

帖子

1万

积分

4K家园VIP

Rank: 9Rank: 9Rank: 9

积分
18830
发表于 2022-4-10 12:04:31 | 显示全部楼层
德國冬天的埃菲爾和阿登4k
回复 支持 反对

使用道具 举报

1

主题

1380

帖子

3940

积分

中级会员

Rank: 4

积分
3940
发表于 2022-4-13 04:40:40 | 显示全部楼层
差评
回复 支持 反对

使用道具 举报

48

主题

1543

帖子

4453

积分

4K家园VIP

Rank: 9Rank: 9Rank: 9

积分
4453
发表于 2022-4-15 06:29:54 | 显示全部楼层
我也来顶一下..
回复 支持 反对

使用道具 举报

1

主题

1632

帖子

4518

积分

4K家园VIP

Rank: 9Rank: 9Rank: 9

积分
4518
发表于 2022-4-15 20:37:47 | 显示全部楼层
围观 围观 沙发在哪里!!!
回复 支持 反对

使用道具 举报

1

主题

1415

帖子

4089

积分

4K家园VIP

Rank: 9Rank: 9Rank: 9

积分
4089
发表于 2022-4-17 13:22:10 | 显示全部楼层
专业抢沙发的!哈哈
回复 支持 反对

使用道具 举报

您需要登录后才可以回帖 登录 | 立即注册

本版积分规则

精彩图文
Archiver|手机版|TAG|Sitemap|新帖|专题|联系我们:邮箱: 4kjia.com@gmail.com   

4k家园   ©2019