光环 / Halo (2021) /第一季全9集(更新至第8集)/4K高清版本下载

  [复制链接]

126

主题

145

帖子

1412

积分

版主

Rank: 7Rank: 7Rank: 7

积分
1412
 楼主| 发表于 2022-3-27 11:45:07 | 显示全部楼层 |阅读模式
本帖最后由 美剧小虾 于 2022-5-13 11:30 编辑

p2868754840_副本.jpg

◎译  名 光环/最后一战(台)/光晕/光环世界
◎片  名 Halo
◎年  代 2022
◎产  地 美国
◎类  别 动作/科幻/战争
◎语  言 英语
◎上映日期 2022-03-24(美国)
◎IMDb评分  7.0/10 from 6876 users
◎IMDb链接  https://www.imdb.com/title/tt2934286/
◎豆瓣评分 7.2/10 from 2628 users
◎豆瓣链接 https://movie.douban.com/subject/24748737/
◎集  数 9
◎片  长 60分钟
◎导  演 乔纳森·里贝斯曼 Jonathan Liebesman / 奥图·巴瑟赫斯特 Otto Bathurst / 罗伊·雷内 Roel Reiné / 杰特·威尔金森 Jet Wilkinson
◎编  剧 史蒂文·凯恩 Steven Kane / 凯尔·基伦 Kyle Killen /约瑟夫·斯塔顿 Joseph Staten
◎主  演 巴勃罗·施瑞博尔 Pablo Schreiber
       娜塔莎·麦克艾霍恩 Natascha McElhone
       叶林·韩 Yerin Ha
       博基姆·伍德拜因 Bokeem Woodbine
       简·泰勒 Jen Taylor
       莎巴娜·阿兹米 Shabana Azmi
       奥利维亚·格兰特 Olivia Grant
       夏莉·墨菲 Charlie Murphy
       凯特·肯尼迪 Kate Kennedy
       宾利·卡鲁 Bentley Kalu
       娜塔莎·卡尔扎克 Natasha Culzac
       丹尼·萨帕尼 Danny Sapani
       瑞安·麦克法兰 Ryan McParland
       朱利安·布里奇 Julian Bleach
       莎拉·里奇韦 Sarah Ridgeway
       卡尔·约翰逊 Karl Johnson
       希尔顿·麦克雷 Hilton McRae
       菲奥娜·奥肖内西 Fiona O'Shaughnessy
       加博尔·纳吉帕尔 Gábor Nagypál
       米兰达·威尔逊 Miranda Wilson
       杰米·比米什 Jamie Beamish
       约翰尼·帕尔默 Johnny K. Palmer
       伊恩·皮里 Ian Pirie
       约翰·迈尔斯 Johann Myers
       安吉·塞佩达 Angie Cepeda
       伊万·芬勇 Iván Feny?
       妮拉·阿利亚 Nila Aalia
       卡罗琳·博尔顿 Caroline Boulton
       米里亚姆·诺瓦克 Mirjam Novak
       孔政焕 Jeong-hwan Kong
       比约恩·弗赖贝格 Bj?rn Freiberg
       罗德里克·希尔 Roderick Hill
       詹妮弗·李 Jennifer Li
       尤娜·申 Yuna Shin
       阿里·坎 Ali Khan
       巴纳巴斯·雷蒂 Barnabás Réti
       埃什·阿拉迪 Esh Alladi
       加布里埃尔·格莱斯特 Gabrielle Glaister
       约瑟特·西蒙 Josette Simon
       马特·戴维尔 Matt Devere
       凯尔·杜拉 Keir Dullea
       大卫·恰尼伊 Dávid Csányi
      卡斯帕·诺夫 Casper Knopf

◎简  介

  游戏改编剧《光环 Halo》确定由Showtime预定10集首季,Otto Bathurst负责执导部份集,此剧于定于2021年播出。
  本项目由13年开始启动,但期间动作不多,在14年XBox En ertainment Studios闭门后转交给Showtime开发,历时4年终于成功发展成正剧。《光晕》系列讲述了26世纪时,人类与外星种族之间的史诗级宇宙战争。
  在《美国众神 American Gods》有演出的Pablo Schreiber饰演核心人物士官长/ Master Chief,他是人类阻止外星大军「星盟」毁灭文化的唯一希望。新晋演员Yerin Ha饰演16岁的Quan Ah,精明﹑胆大的她在殖民星的关键时刻遇上士官长。
  Natascha McElhone会饰演两个角色,第一个是Catherine Halsey博士,她创造了超级士兵 - 斯巴达战士,同时她会饰演人造智能Cortana,它可能是人类能否生存下去的关键。Bokeem Woodbine饰演Soren-066,他是个道德观复杂的私掠船船长,即将与在军中时的军士长兼前好友 - 士官长有所冲突。Shabana Azmi饰演Margaret Parangosky上将,美国海军情报局的领导。
  Bentley Kalu饰演斯巴达战士Vannak-134,有强化神经机器的他是个童年时期就被征召的超级士兵,士官长的副手﹑Natasha Culzac饰演斯巴达战士Riz-028,她是个专注﹑专业的士兵,犹如杀戮机器一般﹑Kate Kennedy饰演有胆识﹑好奇心重的斯巴达战士新人Kai-125。

General
Complete name                  : F:\4K@美剧\Halo.S01E01.2160p.WEB-DL.DDP5.1.Atmos.DV.MKV.x265-GGEZ\halo.s01e01.dv.2160p.web.h265-ggez.mkv
Format                         : Matroska
Format version                 : Version 4
File size                      : 6.05 GiB
Duration                       : 58 min 56 s
Overall bit rate               : 14.7 Mb/s
Writing application            : mkvmerge v59.0.0 ('Shining Star') 64-bit
Writing library                : libebml v1.4.2 + libmatroska v1.6.4
IsTruncated                    : Yes

Video
ID                             : 1
Format                         : HEVC
Format/Info                    : High Efficiency Video Coding
Format profile                 : Main 10@L5@High
HDR format                     : Dolby Vision, Version 1.0, dvhe.05.06, BL+RPU
Codec ID                       : V_MPEGH/ISO/HEVC
Duration                       : 58 min 56 s
Bit rate                       : 13.6 Mb/s
Width                          : 3 840 pixels
Height                         : 2 160 pixels
Display aspect ratio           : 16:9
Frame rate mode                : Constant
Frame rate                     : 23.976 (24000/1001) FPS
Color space                    : YUV
Chroma subsampling             : 4:2:0 (Type 0)
Bit depth                      : 10 bits
Bits/(Pixel*Frame)             : 0.069
Stream size                    : 5.61 GiB (93%)
Default                        : Yes
Forced                         : No
Color range                    : Full

Audio
ID                             : 2
Format                         : E-AC-3 JOC
Format/Info                    : Enhanced AC-3 with Joint Object Coding
Commercial name                : Dolby Digital Plus with Dolby Atmos
Codec ID                       : A_EAC3
Duration                       : 58 min 56 s
Bit rate mode                  : Constant
Bit rate                       : 768 kb/s
Channel(s)                     : 6 channels
Channel layout                 : L R C LFE Ls Rs
Sampling rate                  : 48.0 kHz
Frame rate                     : 31.250 FPS (1536 SPF)
Compression mode               : Lossy
Stream size                    : 324 MiB (5%)
Language                       : English
Service kind                   : Complete Main
Default                        : Yes
Forced                         : No
Complexity index               : 16
Number of dynamic objects      : 15
Bed channel count              : 1 channel
Bed channel configuration      : LFE

Text
ID                             : 3
Format                         : UTF-8
Codec ID                       : S_TEXT/UTF8
Codec ID/Info                  : UTF-8 Plain Text
Title                          : English
Language                       : English
Default                        : No
Forced                         : No

下载地址:
第八集:
游客,如果您要查看本帖隐藏内容请回复

游客,如果您要查看本帖隐藏内容请回复

游客,如果您要查看本帖隐藏内容请回复

游客,如果您要查看本帖隐藏内容请回复


第七集:

游客,如果您要查看本帖隐藏内容请回复

游客,如果您要查看本帖隐藏内容请回复

游客,如果您要查看本帖隐藏内容请回复

游客,如果您要查看本帖隐藏内容请回复

游客,如果您要查看本帖隐藏内容请回复


第六集:
游客,如果您要查看本帖隐藏内容请回复

游客,如果您要查看本帖隐藏内容请回复

游客,如果您要查看本帖隐藏内容请回复

游客,如果您要查看本帖隐藏内容请回复

游客,如果您要查看本帖隐藏内容请回复

游客,如果您要查看本帖隐藏内容请回复

第五集:
游客,如果您要查看本帖隐藏内容请回复

游客,如果您要查看本帖隐藏内容请回复

游客,如果您要查看本帖隐藏内容请回复

游客,如果您要查看本帖隐藏内容请回复

游客,如果您要查看本帖隐藏内容请回复


第四集:
游客,如果您要查看本帖隐藏内容请回复

游客,如果您要查看本帖隐藏内容请回复

游客,如果您要查看本帖隐藏内容请回复

游客,如果您要查看本帖隐藏内容请回复

游客,如果您要查看本帖隐藏内容请回复


第三集:
游客,如果您要查看本帖隐藏内容请回复

游客,如果您要查看本帖隐藏内容请回复

游客,如果您要查看本帖隐藏内容请回复

游客,如果您要查看本帖隐藏内容请回复

游客,如果您要查看本帖隐藏内容请回复


第二集:
游客,如果您要查看本帖隐藏内容请回复

游客,如果您要查看本帖隐藏内容请回复

游客,如果您要查看本帖隐藏内容请回复

游客,如果您要查看本帖隐藏内容请回复


第一集:
游客,如果您要查看本帖隐藏内容请回复

游客,如果您要查看本帖隐藏内容请回复

游客,如果您要查看本帖隐藏内容请回复

游客,如果您要查看本帖隐藏内容请回复




.



上一篇:犯罪现场调查:维加斯 (2021) / 第一季全10集/4K高清版下载
下一篇:灵异女仆(内封中字)/Servant 第三季全10集(2022)/4K高清版本下载
回复

使用道具 举报

56

主题

1544

帖子

4516

积分

4K家园VIP

Rank: 9Rank: 9Rank: 9

积分
4516
发表于 2022-3-27 11:45:30 | 显示全部楼层
路过
回复 支持 反对

使用道具 举报

0

主题

8229

帖子

1万

积分

4K家园VIP

Rank: 9Rank: 9Rank: 9

积分
18818
发表于 2022-3-27 11:54:14 | 显示全部楼层
太好啦&萬分感謝版主的無私發佈分享%
回复 支持 反对

使用道具 举报

0

主题

344

帖子

2109

积分

注册会员

Rank: 2

积分
2109
发表于 2022-3-27 12:02:13 | 显示全部楼层
谢谢楼主分享
回复 支持 反对

使用道具 举报

0

主题

9

帖子

152

积分

4K家园VIP

Rank: 9Rank: 9Rank: 9

积分
152
发表于 2022-3-27 12:38:43 | 显示全部楼层
楼主你好!我下回来了播放是蓝绿色的画面,为啥呀?我知道不是你的文件的问题,我下载的电影经常遇到这样的问题。但是大部分是正常的.
回复 支持 反对

使用道具 举报

0

主题

2

帖子

9

积分

新手上路

Rank: 1

积分
9
发表于 2022-3-27 12:43:37 | 显示全部楼层
我只是看看啊,不说话
回复 支持 反对

使用道具 举报

0

主题

3

帖子

15

积分

新手上路

Rank: 1

积分
15
发表于 2022-3-27 14:47:45 | 显示全部楼层
谢谢楼主分享谢谢楼主分享谢谢楼主分享
回复 支持 反对

使用道具 举报

0

主题

2

帖子

13

积分

新手上路

Rank: 1

积分
13
发表于 2022-3-27 19:07:18 | 显示全部楼层
免费的吗
回复

使用道具 举报

1723

主题

1856

帖子

1万

积分

超级版主

Rank: 8Rank: 8

积分
14024
发表于 2022-3-27 19:11:05 | 显示全部楼层
chpavc 发表于 2022-3-27 12:38
楼主你好!我下回来了播放是蓝绿色的画面,为啥呀?我知道不是你的文件的问题,我下载的电影经常遇到这样的 ...

换其他播放器试试,例如迅雷播放器
回复 支持 反对

使用道具 举报

0

主题

1

帖子

6

积分

新手上路

Rank: 1

积分
6
发表于 2022-3-27 19:21:51 | 显示全部楼层
666666666666666666666666666666666666666666666666666666
回复 支持 反对

使用道具 举报

您需要登录后才可以回帖 登录 | 立即注册

本版积分规则

精彩图文
Archiver|手机版|TAG|Sitemap|新帖|专题|联系我们:邮箱: 4kjia.com@gmail.com   

4k家园   ©2019