[4K电影] 海洋深处的神奇生物 (2021) 3集全/4K@50fps高清版本下载/16.12GB

[复制链接]

2769

主题

3127

帖子

2万

积分

超级版主

Rank: 8Rank: 8

积分
26207
 楼主| 发表于 2022-3-28 10:18:50 | 显示全部楼层 |阅读模式
本帖最后由 叽里呱啦 于 2022-3-29 21:40 编辑

01. История происхождения.ts_20220327_123159.688.jpg 01. История происхождения.ts_20220327_123246.288.jpg 01. История происхождения.ts_20220327_123256.728.jpg 01. История происхождения.ts_20220327_123327.448.jpg 02. Союзники и противники.ts_20220327_123004.976.jpg 02. Союзники и противники.ts_20220327_123023.896.jpg 02. Союзники и противники.ts_20220327_123033.952.jpg 02. Союзники и противники.ts_20220327_123124.904.jpg 03. Следующее поколение.ts_20220327_123407.664.jpg 03. Следующее поколение.ts_20220327_123500.736.jpg 03. Следующее поколение.ts_20220327_123527.512.jpg 03. Следующее поколение.ts_20220327_123602.344.jpg

◎译  名 外星深渊 / 未知深渊 / 外星深渊
◎片  名 Alien Abyss
◎年  代 2021
◎产  地 美国
◎类  别 纪录片/ 自然 / 植物群 / 动物群
◎语  言 俄语
◎上映日期 2021
◎集  数 3
◎片  长 60分钟



◎简      介:

      在这个未知的旅程中,当我们寻找奇异的水生“外星人”时,自然历史与科幻小说相遇。凭借科幻大片的外观、声音和感觉,我们探索了许多令人惊叹的英雄角色,从大胆的鱿鱼到古老的鲨鱼和不可阻挡的甲壳类动物。


Complete name               : M:\Торренты\Документальные\Глубины неизведанного\01. История происхождения.ts
Format                      : MPEG-TS
File size                   : 5.37 GiB
Duration                    : 47 min 56 s
Overall bit rate mode       : Variable
Overall bit rate            : 16.0 Mb/s

Video
ID                          : 4881 (0x1311)
Menu ID                     : 34003 (0x84D3)
Format                      : HEVC
Format/Info                 : High Efficiency Video Coding
Format profile              : Main 10@L5.1@Main
Codec ID                    : 36
Duration                    : 47 min 56 s
Bit rate                    : 15.0 Mb/s
Width                       : 3 840 pixels
Height                      : 2 160 pixels
Display aspect ratio        : 16:9
Frame rate                  : 50.000 FPS
Standard                    : Component
Color space                 : YUV
Chroma subsampling          : 4:2:0
Bit depth                   : 10 bits
Bits/(Pixel*Frame)          : 0.036
Stream size                 : 5.02 GiB (93%)
Color range                 : Limited
Color primaries             : BT.709
Transfer characteristics    : BT.709
Matrix coefficients         : BT.709

Audio #1
ID                          : 4882 (0x1312)
Menu ID                     : 34003 (0x84D3)
Format                      : MPEG Audio
Format version              : Version 1
Format profile              : Layer 2
Codec ID                    : 4
Duration                    : 47 min 56 s
Bit rate mode               : Constant
Bit rate                    : 128 kb/s
Channel(s)                  : 2 channels
Sampling rate               : 48.0 kHz
Frame rate                  : 41.667 FPS (1152 SPF)
Compression mode            : Lossy
Delay relative to video     : 124 ms
Stream size                 : 43.9 MiB (1%)
Language                    : Russian

Audio #2
ID                          : 4883 (0x1313)
Menu ID                     : 34003 (0x84D3)
Format                      : MPEG Audio
Format version              : Version 1
Format profile              : Layer 2
Codec ID                    : 4
Duration                    : 47 min 56 s
Bit rate mode               : Constant
Bit rate                    : 128 kb/s
Channel(s)                  : 2 channels
Sampling rate               : 48.0 kHz
Frame rate                  : 41.667 FPS (1152 SPF)
Compression mode            : Lossy
Delay relative to video     : 124 ms
Stream size                 : 43.9 MiB (1%)
Language                    : English

Complete name               : M:\Торренты\Документальные\Глубины неизведанного\02. Союзники и противники.ts
Format                      : MPEG-TS
File size                   : 5.37 GiB
Duration                    : 47 min 56 s
Overall bit rate mode       : Variable
Overall bit rate            : 16.0 Mb/s

Video
ID                          : 4881 (0x1311)
Menu ID                     : 34003 (0x84D3)
Format                      : HEVC
Format/Info                 : High Efficiency Video Coding
Format profile              : Main 10@L5.1@Main
Codec ID                    : 36
Duration                    : 47 min 56 s
Bit rate                    : 15.0 Mb/s
Width                       : 3 840 pixels
Height                      : 2 160 pixels
Display aspect ratio        : 16:9
Frame rate                  : 50.000 FPS
Standard                    : Component
Color space                 : YUV
Chroma subsampling          : 4:2:0
Bit depth                   : 10 bits
Bits/(Pixel*Frame)          : 0.036
Stream size                 : 5.02 GiB (93%)
Color range                 : Limited
Color primaries             : BT.709
Transfer characteristics    : BT.709
Matrix coefficients         : BT.709

Audio #1
ID                          : 4882 (0x1312)
Menu ID                     : 34003 (0x84D3)
Format                      : MPEG Audio
Format version              : Version 1
Format profile              : Layer 2
Codec ID                    : 4
Duration                    : 47 min 56 s
Bit rate mode               : Constant
Bit rate                    : 128 kb/s
Channel(s)                  : 2 channels
Sampling rate               : 48.0 kHz
Frame rate                  : 41.667 FPS (1152 SPF)
Compression mode            : Lossy
Delay relative to video     : 100 ms
Stream size                 : 43.9 MiB (1%)
Language                    : Russian

Audio #2
ID                          : 4883 (0x1313)
Menu ID                     : 34003 (0x84D3)
Format                      : MPEG Audio
Format version              : Version 1
Format profile              : Layer 2
Codec ID                    : 4
Duration                    : 47 min 56 s
Bit rate mode               : Constant
Bit rate                    : 128 kb/s
Channel(s)                  : 2 channels
Sampling rate               : 48.0 kHz
Frame rate                  : 41.667 FPS (1152 SPF)
Compression mode            : Lossy
Delay relative to video     : 100 ms
Stream size                 : 43.9 MiB (1%)
Language                    : English

Complete name               : M:\Торренты\Документальные\Глубины неизведанного\03. Следующее поколение.ts
Format                      : MPEG-TS
File size                   : 5.37 GiB
Duration                    : 47 min 56 s
Overall bit rate mode       : Variable
Overall bit rate            : 16.0 Mb/s

Video
ID                          : 4881 (0x1311)
Menu ID                     : 34003 (0x84D3)
Format                      : HEVC
Format/Info                 : High Efficiency Video Coding
Format profile              : Main 10@L5.1@Main
Codec ID                    : 36
Duration                    : 18 h 12 min
Bit rate                    : 15.0 Mb/s
Width                       : 3 840 pixels
Height                      : 2 160 pixels
Display aspect ratio        : 16:9
Frame rate                  : 50.000 FPS
Standard                    : Component
Color space                 : YUV
Chroma subsampling          : 4:2:0
Bit depth                   : 10 bits
Bits/(Pixel*Frame)          : 0.036
Stream size                 : 114 GiB
Color range                 : Limited
Color primaries             : BT.709
Transfer characteristics    : BT.709
Matrix coefficients         : BT.709

Audio #1
ID                          : 4882 (0x1312)
Menu ID                     : 34003 (0x84D3)
Format                      : MPEG Audio
Format version              : Version 1
Format profile              : Layer 2
Codec ID                    : 4
Duration                    : 47 min 56 s
Bit rate mode               : Constant
Bit rate                    : 128 kb/s
Channel(s)                  : 2 channels
Sampling rate               : 48.0 kHz
Frame rate                  : 41.667 FPS (1152 SPF)
Compression mode            : Lossy
Delay relative to video     : 4 ms
Stream size                 : 43.9 MiB (1%)
Language                    : Russian

Audio #2
ID                          : 4883 (0x1313)
Menu ID                     : 34003 (0x84D3)
Format                      : MPEG Audio
Format version              : Version 1
Format profile              : Layer 2
Codec ID                    : 4
Duration                    : 47 min 56 s
Bit rate mode               : Constant
Bit rate                    : 128 kb/s
Channel(s)                  : 2 channels
Sampling rate               : 48.0 kHz
Frame rate                  : 41.667 FPS (1152 SPF)
Compression mode            : Lossy
Delay relative to video     : 4 ms
Stream size                 : 43.9 MiB (1%)
Language                    : English

下载地址:

****此区域为收费内容****    需支付 50 金币后可查看立即购买





.

上一篇:狙击手 / Snipers (内封中字) (2022) 4K@60fps高清版本下载
下一篇:尼罗河上的惨案 / Death on the Nile (2022) 4K高清版本下载
回复

使用道具 举报

1

主题

1161

帖子

3503

积分

4K家园VIP

Rank: 9Rank: 9Rank: 9

积分
3503
发表于 2022-3-28 10:18:55 | 显示全部楼层
顶起出售广告位
回复 支持 反对

使用道具 举报

0

主题

3

帖子

64

积分

新手上路

Rank: 1

积分
64
发表于 2022-3-28 10:33:09 | 显示全部楼层
谢谢分享
回复

使用道具 举报

0

主题

8229

帖子

1万

积分

4K家园VIP

Rank: 9Rank: 9Rank: 9

积分
18818
发表于 2022-3-28 11:07:57 | 显示全部楼层
海洋深處的神奇生物4k
回复 支持 反对

使用道具 举报

0

主题

37

帖子

1583

积分

4K家园VIP

Rank: 9Rank: 9Rank: 9

积分
1583
发表于 2022-3-28 12:17:18 | 显示全部楼层
有字幕么?
回复

使用道具 举报

0

主题

344

帖子

2109

积分

注册会员

Rank: 2

积分
2109
发表于 2022-3-28 12:57:51 | 显示全部楼层
谢谢楼主分享
回复 支持 反对

使用道具 举报

0

主题

2

帖子

12

积分

新手上路

Rank: 1

积分
12
发表于 2022-3-28 19:05:40 | 显示全部楼层
他惹我天热问题
回复 支持 反对

使用道具 举报

0

主题

34

帖子

2215

积分

注册会员

Rank: 2

积分
2215
发表于 2022-3-28 20:29:44 | 显示全部楼层
谢谢分享
回复

使用道具 举报

2

主题

1663

帖子

4629

积分

4K家园VIP

Rank: 9Rank: 9Rank: 9

积分
4629
发表于 2022-3-29 12:58:42 | 显示全部楼层
出4K版啦,下个看看
回复 支持 反对

使用道具 举报

0

主题

4

帖子

18

积分

新手上路

Rank: 1

积分
18
发表于 2022-3-29 14:31:18 | 显示全部楼层
多谢分享~~~
回复

使用道具 举报

您需要登录后才可以回帖 登录 | 立即注册

本版积分规则

精彩图文
Archiver|手机版|TAG|Sitemap|新帖|专题|联系我们:邮箱: 4kjia.com@gmail.com   

4k家园   ©2019