镜像人生(内嵌中字)/Parallèles第一季全6集(2022)/4K高清版本下载

[复制链接]

130

主题

149

帖子

1459

积分

版主

Rank: 7Rank: 7Rank: 7

积分
1459
 楼主| 发表于 2022-3-27 19:49:26 | 显示全部楼层 |阅读模式
本帖最后由 美剧小虾 于 2022-3-28 17:22 编辑

p2869811583_副本.jpg

◎译  名 Parallels
◎片  名 Parallèles
◎年  代 2022
◎产  地 法国
◎类  别 剧情/悬疑/奇幻
◎语  言 法语
◎上映日期 2022-03-23(法国)
◎IMDb评分  6.6/10 from 303 users
◎IMDb链接  https://www.imdb.com/title/tt8590080/
◎豆瓣评分 /10 from 0 users
◎豆瓣链接 https://douban.com/subject/35785461/
◎片  长 45分钟
◎导  演 ?
◎编  剧 ?
◎主  演 阿纳斯塔西娅·艾特·扎哈尔
                  朱尔斯·霍普兰
                  纪尧姆·拉贝
                  奈德拉·阿亚迪
                  吉尔·阿尔玛
                  托马斯·乔梅尔
                  维多利亚·埃伯
                  杰德·佩德里
                  马克西姆·伯杰龙
                  奥马尔·梅布鲁克,
                  阿涅斯·米古拉斯
                  蒂莫特·里戈
                  埃莉斯·迪亚曼特
                  罗曼·弗朗西斯科
                  Dimitri Storoge



◎简  介


  四个十几岁的朋友,在法国和瑞士边境,他们的生活被世界上最大的粒子对撞机LHC的实验搞得天翻地覆。
General
Complete name                  : F:\4K@美剧\Parallels.S01.FRENCH.2160p.WEB-DL.DDP5.1.Atmos.DV.MP4.x265-DVROX
Format                         : MPEG-4
Format profile                 : Base Media / Version 2
Codec ID                       : mp42 (isom/mp42/dby1)
File size                      : 5.67 GiB
Duration                       : 35 min 49 s
Overall bit rate mode          : Variable
Overall bit rate               : 22.7 Mb/s
IsTruncated                    : Yes

Video
ID                             : 1
Format                         : HEVC
Format/Info                    : High Efficiency Video Coding
Format profile                 : Main 10@L5.2@Main
HDR format                     : Dolby Vision, Version 1.0, dvhe.05.07, BL+RPU
Codec ID                       : dvhe
Codec ID/Info                  : High Efficiency Video Coding with Dolby Vision
Duration                       : 35 min 48 s
Bit rate                       : 22.5 Mb/s
Width                          : 3 840 pixels
Height                         : 2 160 pixels
Display aspect ratio           : 16:9
Frame rate mode                : Constant
Frame rate                     : 25.000 FPS
Color space                    : YUV
Chroma subsampling             : 4:2:0 (Type 0)
Bit depth                      : 10 bits
Bits/(Pixel*Frame)             : 0.108
Stream size                    : 5.62 GiB (99%)
Default                        : Yes
Alternate group                : 1
Color range                    : Full
Codec configuration box        : hvcC+dvcC

Audio #1
ID                             : 2
Format                         : E-AC-3 JOC
Format/Info                    : Enhanced AC-3 with Joint Object Coding
Commercial name                : Dolby Digital Plus with Dolby Atmos
Codec ID                       : ec-3
Duration                       : 35 min 49 s
Source duration                : 35 min 47 s
Bit rate mode                  : Constant
Bit rate                       : 768 kb/s
Maximum bit rate               : 811 kb/s
Channel(s)                     : 6 channels
Channel layout                 : L R C LFE Ls Rs
Sampling rate                  : 48.0 kHz
Frame rate                     : 31.250 FPS (1536 SPF)
Compression mode               : Lossy
Stream size                    : 197 MiB (3%)
Source stream size             : 197 MiB (3%)
Language                       : French
Service kind                   : Complete Main
Default                        : Yes
Alternate group                : 1
Complexity index               : Not present / 16
Number of dynamic objects      : 15
Bed channel count              : 1 channel
Bed channel configuration      : LFE

Audio #2
ID                             : 4
Format                         : E-AC-3 JOC
Format/Info                    : Enhanced AC-3 with Joint Object Coding
Commercial name                : Dolby Digital Plus with Dolby Atmos
Codec ID                       : ec-3
Duration                       : 35 min 49 s
Source duration                : 35 min 47 s
Bit rate mode                  : Constant
Bit rate                       : 768 kb/s
Maximum bit rate               : 811 kb/s
Channel(s)                     : 6 channels
Channel layout                 : L R C LFE Ls Rs
Sampling rate                  : 48.0 kHz
Frame rate                     : 31.250 FPS (1536 SPF)
Compression mode               : Lossy
Stream size                    : 197 MiB (3%)
Source stream size             : 197 MiB (3%)
Language                       : English
Service kind                   : Complete Main
Default                        : Yes
Alternate group                : 1
Complexity index               : Not present / 16
Number of dynamic objects      : 15
Bed channel count              : 1 channel
Bed channel configuration      : LFE

Text #1
ID                             : 6
Format                         : Timed Text
Codec ID                       : tx3g
Duration                       : 33 min 56 s
Bit rate mode                  : Variable
Bit rate                       : 1 b/s
Stream size                    : 221 Bytes (0%)
Title                          : Forced
Language                       : English
Forced                         : Yes

Text #2
ID                             : 7
Format                         : Timed Text
Codec ID                       : tx3g
Duration                       : 34 min 36 s
Bit rate mode                  : Variable
Bit rate                       : 53 b/s
Stream size                    : 13.3 KiB (0%)
Language                       : English
Forced                         : No

Text #3
ID                             : 8
Format                         : Timed Text
Codec ID                       : tx3g
Duration                       : 34 min 36 s
Bit rate mode                  : Variable
Bit rate                       : 69 b/s
Stream size                    : 17.4 KiB (0%)
Title                          : SDH
Language                       : English
Forced                         : No

Text #4
ID                             : 9
Format                         : Timed Text
Codec ID                       : tx3g
Duration                       : 35 min 45 s
Bit rate mode                  : Variable
Bit rate                       : 41 b/s
Stream size                    : 10.8 KiB (0%)
Language                       : Czech
Forced                         : No

Text #5
ID                             : 10
Format                         : Timed Text
Codec ID                       : tx3g
Duration                       : 35 min 45 s
Bit rate mode                  : Variable
Bit rate                       : 42 b/s
Stream size                    : 10.9 KiB (0%)
Language                       : Danish
Forced                         : No

Text #6
ID                             : 11
Format                         : Timed Text
Codec ID                       : tx3g
Duration                       : 35 min 45 s
Bit rate mode                  : Variable
Bit rate                       : 43 b/s
Stream size                    : 11.3 KiB (0%)
Language                       : German
Forced                         : No

Text #7
ID                             : 12
Format                         : Timed Text
Codec ID                       : tx3g
Duration                       : 35 min 45 s
Bit rate mode                  : Variable
Bit rate                       : 74 b/s
Stream size                    : 19.5 KiB (0%)
Language                       : Greek
Forced                         : No

Text #8
ID                             : 13
Format                         : Timed Text
Codec ID                       : tx3g
Duration                       : 35 min 45 s
Bit rate mode                  : Variable
Bit rate                       : 43 b/s
Stream size                    : 11.3 KiB (0%)
Title                          : Latin American
Language                       : Spanish
Forced                         : No

Text #9
ID                             : 14
Format                         : Timed Text
Codec ID                       : tx3g
Duration                       : 35 min 45 s
Bit rate mode                  : Variable
Bit rate                       : 43 b/s
Stream size                    : 11.4 KiB (0%)
Language                       : Spanish
Forced                         : No

Text #10
ID                             : 15
Format                         : Timed Text
Codec ID                       : tx3g
Duration                       : 35 min 45 s
Bit rate mode                  : Variable
Bit rate                       : 46 b/s
Stream size                    : 12.2 KiB (0%)
Language                       : Finnish
Forced                         : No

Text #11
ID                             : 16
Format                         : Timed Text
Codec ID                       : tx3g
Duration                       : 35 min 45 s
Bit rate mode                  : Variable
Bit rate                       : 62 b/s
Stream size                    : 16.4 KiB (0%)
Title                          : SDH
Language                       : French
Forced                         : No

Text #12
ID                             : 17
Format                         : Timed Text
Codec ID                       : tx3g
Duration                       : 35 min 45 s
Bit rate mode                  : Variable
Bit rate                       : 42 b/s
Stream size                    : 11.1 KiB (0%)
Language                       : Italian
Forced                         : No

Text #13
ID                             : 18
Format                         : Timed Text
Codec ID                       : tx3g
Duration                       : 35 min 46 s
Bit rate mode                  : Variable
Bit rate                       : 39 b/s
Stream size                    : 10.1 KiB (0%)
Language                       : Japanese
Forced                         : No

Text #14
ID                             : 19
Format                         : Timed Text
Codec ID                       : tx3g
Duration                       : 35 min 45 s
Bit rate mode                  : Variable
Bit rate                       : 52 b/s
Stream size                    : 13.7 KiB (0%)
Language                       : Korean
Forced                         : No

Text #15
ID                             : 20
Format                         : Timed Text
Codec ID                       : tx3g
Duration                       : 35 min 45 s
Bit rate mode                  : Variable
Bit rate                       : 41 b/s
Stream size                    : 10.7 KiB (0%)
Language                       : Dutch
Forced                         : No

Text #16
ID                             : 21
Format                         : Timed Text
Codec ID                       : tx3g
Duration                       : 35 min 45 s
Bit rate mode                  : Variable
Bit rate                       : 43 b/s
Stream size                    : 11.3 KiB (0%)
Language                       : Norwegian
Forced                         : No

Text #17
ID                             : 22
Format                         : Timed Text
Codec ID                       : tx3g
Duration                       : 35 min 45 s
Bit rate mode                  : Variable
Bit rate                       : 43 b/s
Stream size                    : 11.3 KiB (0%)
Language                       : Polish
Forced                         : No

Text #18
ID                             : 23
Format                         : Timed Text
Codec ID                       : tx3g
Duration                       : 35 min 45 s
Bit rate mode                  : Variable
Bit rate                       : 43 b/s
Stream size                    : 11.2 KiB (0%)
Title                          : Brazilian
Language                       : Portuguese
Forced                         : No

Text #19
ID                             : 24
Format                         : Timed Text
Codec ID                       : tx3g
Duration                       : 35 min 45 s
Bit rate mode                  : Variable
Bit rate                       : 47 b/s
Stream size                    : 12.4 KiB (0%)
Language                       : Portuguese
Forced                         : No

Text #20
ID                             : 25
Format                         : Timed Text
Codec ID                       : tx3g
Duration                       : 35 min 45 s
Bit rate mode                  : Variable
Bit rate                       : 44 b/s
Stream size                    : 11.6 KiB (0%)
Language                       : Romanian
Forced                         : No

Text #21
ID                             : 26
Format                         : Timed Text
Codec ID                       : tx3g
Duration                       : 35 min 45 s
Bit rate mode                  : Variable
Bit rate                       : 45 b/s
Stream size                    : 11.8 KiB (0%)
Language                       : Slovak
Forced                         : No

Text #22
ID                             : 27
Format                         : Timed Text
Codec ID                       : tx3g
Duration                       : 35 min 45 s
Bit rate mode                  : Variable
Bit rate                       : 46 b/s
Stream size                    : 12.1 KiB (0%)
Language                       : Swedish
Forced                         : No

Text #23
ID                             : 28
Format                         : Timed Text
Codec ID                       : tx3g
Duration                       : 35 min 45 s
Bit rate mode                  : Variable
Bit rate                       : 49 b/s
Stream size                    : 12.8 KiB (0%)
Title                          : 中文(简体)
Language                       : 中文
Forced                         : No

Text #24
ID                             : 29
Format                         : Timed Text
Codec ID                       : tx3g
Duration                       : 35 min 45 s
Bit rate mode                  : Variable
Bit rate                       : 45 b/s
Stream size                    : 11.8 KiB (0%)
Title                          : 中文(繁体)
Language                       : 中文
Forced                         : No


Menu
00:34:56.400                   : Credits
下载地址:

游客,如果您要查看本帖隐藏内容请回复

游客,如果您要查看本帖隐藏内容请回复

游客,如果您要查看本帖隐藏内容请回复

游客,如果您要查看本帖隐藏内容请回复




上一篇:灵异女仆(内封中字)/Servant 第三季全10集(2022)/4K高清版本下载
下一篇:苍穹浩瀚 (内嵌简繁中字) 第六季/全6集 (2022)/ 4K高清版本下载
回复

使用道具 举报

40

主题

1493

帖子

4295

积分

4K家园VIP

Rank: 9Rank: 9Rank: 9

积分
4295
发表于 2022-3-27 19:49:34 来自手机 | 显示全部楼层
众里寻他千百度,蓦然回首在这里!
回复 支持 反对

使用道具 举报

0

主题

8230

帖子

1万

积分

4K家园VIP

Rank: 9Rank: 9Rank: 9

积分
18830
发表于 2022-3-27 20:50:42 | 显示全部楼层
廣東龍門永遠馬到成功&萬分感謝版主的無私發佈分享%
回复 支持 反对

使用道具 举报

1

主题

1322

帖子

3850

积分

4K家园VIP

Rank: 9Rank: 9Rank: 9

积分
3850
发表于 2022-3-28 07:48:26 | 显示全部楼层
一直在看
回复 支持 反对

使用道具 举报

2

主题

1348

帖子

3880

积分

4K家园VIP

Rank: 9Rank: 9Rank: 9

积分
3880
发表于 2022-3-31 15:32:38 | 显示全部楼层
感谢楼主发帖,前排顶起
回复 支持 反对

使用道具 举报

41

主题

1486

帖子

4258

积分

4K家园VIP

Rank: 9Rank: 9Rank: 9

积分
4258
发表于 2022-4-2 19:06:33 | 显示全部楼层
鄙视楼下的顶帖没我快,哈哈
回复 支持 反对

使用道具 举报

0

主题

8230

帖子

1万

积分

4K家园VIP

Rank: 9Rank: 9Rank: 9

积分
18830
发表于 2022-4-2 21:42:15 | 显示全部楼层
太好啦&萬分感謝版主的無私發佈分享%
回复 支持 反对

使用道具 举报

6

主题

1432

帖子

4172

积分

中级会员

Rank: 4

积分
4172
发表于 2022-4-4 07:25:07 来自手机 | 显示全部楼层
都不知道说的啥
回复 支持 反对

使用道具 举报

0

主题

8230

帖子

1万

积分

4K家园VIP

Rank: 9Rank: 9Rank: 9

积分
18830
发表于 2022-4-4 09:44:55 | 显示全部楼层
太好啦&萬分感謝版主的無私發佈分享%
回复 支持 反对

使用道具 举报

您需要登录后才可以回帖 登录 | 立即注册

本版积分规则

精彩图文
Archiver|手机版|TAG|Sitemap|新帖|专题|联系我们:邮箱: 4kjia.com@gmail.com   

4k家园   ©2019