[4K电影] 尼罗河上的惨案 / Death on the Nile (2022) 4K高清版本下载

[复制链接]

1735

主题

1868

帖子

1万

积分

超级版主

Rank: 8Rank: 8

积分
14105
 楼主| 发表于 2022-3-29 14:51:29 | 显示全部楼层 |阅读模式
本帖最后由 最爱4K哟 于 2022-3-29 20:28 编辑

QQ图片20220329144300_副本.png

◎译  名 尼罗河上的惨案 / 尼罗河谋杀案(港 / 台)
◎片  名 Death on the Nile
◎年  代 2022
◎产  地 美国 / 英国
◎类  别 剧情 / 悬疑 / 犯罪
◎语  言 英语
◎上映日期 2022-02-19(中国大陆) / 2022-02-11(美国)
◎IMDb评分  6.6/10 from 31959 users
◎IMDb链接  https://www.imdb.com/title/tt7657566/
◎豆瓣评分 6.0/10 from 56038 users
◎豆瓣链接 https://movie.douban.com/subject/27203644/
◎片  长 127分钟
◎导  演 肯尼思·布拉纳 Kenneth Branagh
◎编  剧 迈克尔·格林 Michael Green / 阿加莎·克里斯蒂 Agatha Christie
◎演  员 肯尼思·布拉纳 Kenneth Branagh
       盖尔·加朵 Gal Gadot
       露丝·莱斯利 Rose Leslie
       利蒂希娅·赖特 Letitia Wright
       艾玛·麦基 Emma Mackey
       艾米·汉莫 Armie Hammer
       珍妮弗·桑德斯 Jennifer Saunders
       苏菲·奥康内多 Sophie Okonedo
       安妮特·贝宁 Annette Bening
       妮基塔·查达哈 Nikkita Chadha
       汤姆·巴特曼 Tom Bateman
       亚当·加西亚 Adam Garcia
       拉塞尔·布兰德 Russell Brand
       唐·弗兰奇 Dawn French
       里克·沃登 Rick Warden
       阿里·法扎勒 Ali Fazal
       尼亚姆·林奇 Niamh Lynch
       埃莉诺·德·罗汉 Eleanor de Rohan
       爱德华·刘易斯·弗伦奇 Edward Lewis French
       拉普洛斯·卡伦福佐斯 Lampros Kalfuntzos
       弗朗西斯·洛夫霍尔 Francis Lovehall
       维克多·阿里 Victor Alli
       肯尼思·布拉纳 Kenneth Branagh
       雷德利·斯科特 Ridley Scott
       帕特里克·道尔 Patrick Doyle
       帕科·德尔加多 Paco Delgado


◎简  介


  故事继续聚焦在上流社会的秘事,大侦探波洛(肯尼思·布拉纳 Kenneth Branagh 饰)在埃及度假期间, 卷入到了一场危险的三角关系之中,他在察觉到这趟旅程中不寻常的味道之后,登上了那条驶往阴谋和死亡的船。

General
Complete name                  : F:\4K@电影\Death.on.the.Nile.2022.2022.2160p.WEB-DL.DDP5.1.Atmos.HDR.H.265-EVO
Format                         : Matroska
Format version                 : Version 4
File size                      : 11.9 GiB
Duration                       : 2 h 6 min
Overall bit rate               : 13.4 Mb/s
Encoded date                   : UTC 2022-03-29 04:55:34
Writing application            : mkvmerge v65.0.0 ('Too Much') 64-bit
Writing library                : libebml v1.4.2 + libmatroska v1.6.4
IsTruncated                    : Yes

Video
ID                             : 1
Format                         : HEVC
Format/Info                    : High Efficiency Video Coding
Format profile                 : Main 10@L5@High
HDR format                     : SMPTE ST 2086, HDR10 compatible
Codec ID                       : V_MPEGH/ISO/HEVC
Duration                       : 2 h 6 min
Bit rate                       : 12.3 Mb/s
Width                          : 3 840 pixels
Height                         : 1 606 pixels
Display aspect ratio           : 2.40:1
Frame rate mode                : Constant
Frame rate                     : 23.976 (24000/1001) FPS
Color space                    : YUV
Chroma subsampling             : 4:2:0 (Type 2)
Bit depth                      : 10 bits
Bits/(Pixel*Frame)             : 0.083
Stream size                    : 10.9 GiB (92%)
Default                        : Yes
Forced                         : No
Color range                    : Limited
Color primaries                : BT.2020
Transfer characteristics       : PQ
Matrix coefficients            : BT.2020 non-constant
Mastering display color primar : BT.2020
Mastering display luminance    : min: 0.0050 cd/m2, max: 1000 cd/m2
Maximum Content Light Level    : 1187 cd/m2
Maximum Frame-Average Light Le : 842 cd/m2

Audio
ID                             : 2
Format                         : E-AC-3 JOC
Format/Info                    : Enhanced AC-3 with Joint Object Coding
Commercial name                : Dolby Digital Plus with Dolby Atmos
Codec ID                       : A_EAC3
Duration                       : 2 h 6 min
Bit rate mode                  : Constant
Bit rate                       : 768 kb/s
Channel(s)                     : 6 channels
Channel layout                 : L R C LFE Ls Rs
Sampling rate                  : 48.0 kHz
Frame rate                     : 31.250 FPS (1536 SPF)
Compression mode               : Lossy
Stream size                    : 697 MiB (6%)
Language                       : English
Service kind                   : Complete Main
Default                        : Yes
Forced                         : No
Complexity index               : 16
Number of dynamic objects      : 15
Bed channel count              : 1 channel
Bed channel configuration      : LFE

Text #1
ID                             : 3
Format                         : UTF-8
Codec ID                       : S_TEXT/UTF8
Codec ID/Info                  : UTF-8 Plain Text
Language                       : English
Default                        : No
Forced                         : No

Text #2
ID                             : 4
Format                         : UTF-8
Codec ID                       : S_TEXT/UTF8
Codec ID/Info                  : UTF-8 Plain Text
Title                          : Latin American
Language                       : Spanish
Default                        : No
Forced                         : No

Text #3
ID                             : 5
Format                         : UTF-8
Codec ID                       : S_TEXT/UTF8
Codec ID/Info                  : UTF-8 Plain Text
Title                          : Canadian
Language                       : French
Default                        : No
Forced                         : No

资源速度为零或资源敏感被和谐时,推荐使用qBittorrent等下载软件,有条件的推荐115更好的下载软件!

下载地址

游客,如果您要查看本帖隐藏内容请回复
游客,如果您要查看本帖隐藏内容请回复

游客,如果您要查看本帖隐藏内容请回复

游客,如果您要查看本帖隐藏内容请回复

****此区域为收费内容****    需支付 9 金币后可查看立即购买






上一篇:海洋深处的神奇生物 (2021) 3集全/4K@50fps高清版本下载/16.12GB
下一篇:骑师 / Jockey (2021) 4K高清版本下载
回复

使用道具 举报

4

主题

1623

帖子

4469

积分

4K家园VIP

Rank: 9Rank: 9Rank: 9

积分
4469
发表于 2022-3-29 14:51:33 | 显示全部楼层
楼猪辛苦了,支持一下分享好资源
回复 支持 反对

使用道具 举报

0

主题

8230

帖子

1万

积分

4K家园VIP

Rank: 9Rank: 9Rank: 9

积分
18830
发表于 2022-3-29 15:28:15 | 显示全部楼层
尼羅河上的慘案4k
回复 支持 反对

使用道具 举报

3

主题

1412

帖子

4062

积分

4K家园VIP

Rank: 9Rank: 9Rank: 9

积分
4062
发表于 2022-3-29 15:28:29 | 显示全部楼层
鄙视楼下的顶帖没我快,哈哈
回复 支持 反对

使用道具 举报

39

主题

1527

帖子

4375

积分

4K家园VIP

Rank: 9Rank: 9Rank: 9

积分
4375
发表于 2022-3-29 17:35:18 | 显示全部楼层
路过
回复 支持 反对

使用道具 举报

3

主题

1295

帖子

3907

积分

4K家园VIP

Rank: 9Rank: 9Rank: 9

积分
3907
发表于 2022-3-30 15:36:08 | 显示全部楼层
这么强,支持楼主,佩服
回复 支持 反对

使用道具 举报

1

主题

1344

帖子

4050

积分

4K家园VIP

Rank: 9Rank: 9Rank: 9

积分
4050
发表于 2022-3-30 15:58:22 | 显示全部楼层
呵呵,低调,低调!
回复 支持 反对

使用道具 举报

0

主题

4

帖子

18

积分

新手上路

Rank: 1

积分
18
发表于 2022-3-30 18:50:10 | 显示全部楼层
6666666666666666666666
回复 支持 反对

使用道具 举报

0

主题

2

帖子

9

积分

新手上路

Rank: 1

积分
9
发表于 2022-3-30 19:14:48 | 显示全部楼层
楼主辛苦了哦哈哈哈
回复 支持 反对

使用道具 举报

0

主题

2

帖子

9

积分

新手上路

Rank: 1

积分
9
发表于 2022-4-3 09:31:07 | 显示全部楼层
感谢分享~~~
回复

使用道具 举报

您需要登录后才可以回帖 登录 | 立即注册

本版积分规则

精彩图文
Archiver|手机版|TAG|Sitemap|新帖|专题|联系我们:邮箱: 4kjia.com@gmail.com   

4k家园   ©2019