[4K电影] 骑师 / Jockey (2021) 4K高清版本下载

[复制链接]

1701

主题

1834

帖子

1万

积分

超级版主

Rank: 8Rank: 8

积分
13887
 楼主| 发表于 2022-3-29 20:42:07 | 显示全部楼层 |阅读模式
QQ图片20220329203600_副本.png

◎译  名 骑师
◎片  名 Jockey
◎年  代 2021
◎产  地 美国
◎类  别 剧情
◎语  言 英语
◎上映日期 2021-01-31(圣丹斯电影节)/2021-12-29(美国)
◎IMDb评分  6.7/10 from 430 users
◎IMDb链接  https://www.imdb.com/title/tt13559026/
◎豆瓣评分 /10 from 0 users
◎豆瓣链接 https://movie.douban.com/subject/35288418/
◎导  演 克林特·本特利 Clint Bentley
◎编  剧 克林特·本特利 Clint Bentley / 格雷格·柯韦达 Greg Kwedar
◎主  演 小克利夫顿·克林斯 Clifton Collins Jr.
       莫莉·帕克 Molly Parker
       莫伊塞斯·阿里亚斯 Moises Arias


◎简  介

     经验丰富的赛马骑师杰克逊(小克利夫顿·柯林斯饰)在骑行赛道上经历了几十年的比赛,但随着健康状况的恶化,他现在发现自己面临着可能是最后一个赛季的挑战。在露丝(莫莉·帕克饰)和一匹有前途的新马的帮助下,杰克逊开始为即将到来的锦标赛做准备。当一位崭露头角的年轻骑师(Moisés Arias)出现并声称自己是他的儿子时,他的计划左转。在渴望联系和对自己未来的不确定性之间,杰克逊面临着关于他的遗产的难题。

◎获奖情况

  第37届圣丹斯电影节(2021)
  评审团大奖 剧情片(提名)
  评审团特别奖 表演

Video
ID : 1
Format : HEVC
Format/Info : High Efficiency Video Coding
Format profile : Main 10@L5@High
HDR format : SMPTE ST 2086, HDR10 compatible
Codec ID : V_MPEGH/ISO/HEVC
Duration : 1 h 34 min
Bit rate : 24.6 Mb/s
Width : 3 840 pixels
Height : 1 600 pixels
Display aspect ratio : 2.40:1
Frame rate mode : Constant
Frame rate : 23.976 FPS
Color space : YUV
Chroma subsampling : 4:2:0 (Type 2)
Bit depth : 10 bits
Bits/(Pixel*Frame) : 0.167
Stream size : 16.3 GiB (86%)
Default : Yes
Forced : No
Color range : Limited
Color primaries : BT.2020
Transfer characteristics : PQ
Matrix coefficients : BT.2020 non-constant
Mastering display color primaries : BT.2020
Mastering display luminance : min: 0.0050 cd/m2, max: 1000 cd/m2
Maximum Content Light Level : 701 cd/m2
Maximum Frame-Average Light Level : 141 cd/m2

Audio #1
ID : 2
Format : DTS XLL
Format/Info : Digital Theater Systems
Commercial name : DTS-HD Master Audio
Codec ID : A_DTS
Duration : 1 h 34 min
Bit rate mode : Variable
Bit rate : 3 510 kb/s
Channel(s) : 6 channels
Channel layout : C L R Ls Rs LFE
Sampling rate : 48.0 kHz
Frame rate : 93.750 FPS (512 SPF)
Bit depth : 24 bits
Compression mode : Lossless
Delay relative to video : 3 ms
Stream size : 2.33 GiB (12%)
Title : DTS-HD MA 5.1
Language : English
Default : Yes
Forced : No

Audio #2
ID : 3
Format : AC-3
Format/Info : Audio Coding 3
Commercial name : Dolby Digital
Codec ID : A_AC3
Duration : 1 h 34 min
Bit rate mode : Constant
Bit rate : 384 kb/s
Channel(s) : 6 channels
Channel layout : L R C LFE Ls Rs
Sampling rate : 48.0 kHz
Frame rate : 31.250 FPS (1536 SPF)
Compression mode : Lossy
Stream size : 261 MiB (1%)
Title : DD 5.1
Language : English
Service kind : Complete Main
Default : No
Forced : No

Text #1
ID : 4
Format : UTF-8
Codec ID : S_TEXT/UTF8
Codec ID/Info : UTF-8 Plain Text
Duration : 1 h 29 min
Bit rate : 58 b/s
Count of elements : 1054
Stream size : 38.7 KiB (0%)
Title : English British
Language : English
Default : Yes
Forced : No

Text #2
ID : 5
Format : UTF-8
Codec ID : S_TEXT/UTF8
Codec ID/Info : UTF-8 Plain Text
Duration : 1 h 32 min
Bit rate : 63 b/s
Count of elements : 1375
Stream size : 43.3 KiB (0%)
Title : English CC
Language : English
Default : No
Forced : No

Text #3
ID : 6
Format : UTF-8
Codec ID : S_TEXT/UTF8
Codec ID/Info : UTF-8 Plain Text
Duration : 1 h 34 min
Bit rate : 48 b/s
Count of elements : 1039
Stream size : 33.3 KiB (0%)
Title : French European
Language : French
Default : No
Forced : No

Text #4
ID : 7
Format : UTF-8
Codec ID : S_TEXT/UTF8
Codec ID/Info : UTF-8 Plain Text
Duration : 1 h 34 min
Bit rate : 86 b/s
Count of elements : 1061
Stream size : 59.7 KiB (0%)
Title : Ukrainian
Language : Ukrainian
Default : No
Forced : No

Text #5
ID : 8
Format : PGS
Muxing mode : zlib
Codec ID : S_HDMV/PGS
Codec ID/Info : Picture based subtitle format used on BDs/HD-DVDs
Duration : 1 h 32 min
Bit rate : 37.0 kb/s
Count of elements : 2283
Stream size : 24.5 MiB (0%)
Language : English
Default : No
Forced : No

Text #6
ID : 9
Format : PGS
Muxing mode : zlib
Codec ID : S_HDMV/PGS
Codec ID/Info : Picture based subtitle format used on BDs/HD-DVDs
Duration : 1 h 29 min
Bit rate : 35.6 kb/s
Count of elements : 2109
Stream size : 22.8 MiB (0%)
Language : English
Default : No
Forced : No

Text #7
ID : 10
Format : PGS
Muxing mode : zlib
Codec ID : S_HDMV/PGS
Codec ID/Info : Picture based subtitle format used on BDs/HD-DVDs
Duration : 1 h 34 min
Bit rate : 27.9 kb/s
Count of elements : 2079
Stream size : 18.8 MiB (0%)
Language : French
Default : No
Forced : No

Text #8
ID : 11
Format : PGS
Muxing mode : zlib
Codec ID : S_HDMV/PGS
Codec ID/Info : Picture based subtitle format used on BDs/HD-DVDs
Duration : 1 h 34 min
Bit rate : 32.2 kb/s
Count of elements : 2115
Stream size : 21.7 MiB (0%)
Language : Spanish
Default : No
Forced : No

Menu
00:00:00.000 : en:Chapter 01
00:02:33.028 : en:Chapter 02
00:06:05.282 : en:Chapter 03
00:08:41.479 : en:Chapter 04
00:15:28.845 : en:Chapter 05
00:20:27.226 : en:Chapter 06
00:27:15.843 : en:Chapter 07
00:33:06.318 : en:Chapter 08
00:40:12.327 : en:Chapter 09
00:47:05.072 : en:Chapter 10
01:02:00.216 : en:Chapter 11
01:03:12.998 : en:Chapter 12
01:07:53.653 : en:Chapter 13
01:11:29.452 : en:Chapter 14
01:16:18.574 : en:Chapter 15
01:22:56.805 : en:Chapter 16
01:32:45.185 : en:Chapter 17
资源速度为零或资源敏感被和谐时,推荐使用qBittorrent等下载软件,有条件的推荐115更好的下载软件!

下载地址


游客,如果您要查看本帖隐藏内容请回复

游客,如果您要查看本帖隐藏内容请回复

游客,如果您要查看本帖隐藏内容请回复

游客,如果您要查看本帖隐藏内容请回复




上一篇:尼罗河上的惨案 / Death on the Nile (2022) 4K高清版本下载
下一篇:登月计划 / Moonshot (2022) 4K高清版本下载
回复

使用道具 举报

1

主题

1357

帖子

3903

积分

4K家园VIP

Rank: 9Rank: 9Rank: 9

积分
3903
发表于 2022-3-29 20:42:11 | 显示全部楼层
好,很好,非常好!
回复 支持 反对

使用道具 举报

0

主题

1

帖子

6

积分

新手上路

Rank: 1

积分
6
发表于 2022-3-29 20:58:13 | 显示全部楼层
感谢分享
回复

使用道具 举报

2

主题

1578

帖子

4580

积分

4K家园VIP

Rank: 9Rank: 9Rank: 9

积分
4580
发表于 2022-3-29 21:05:53 来自手机 | 显示全部楼层
鼎力支持!!
回复 支持 反对

使用道具 举报

0

主题

8229

帖子

1万

积分

4K家园VIP

Rank: 9Rank: 9Rank: 9

积分
18809
发表于 2022-3-29 22:58:41 | 显示全部楼层
太好啦&萬分感謝版主的無私發佈分享%
回复 支持 反对

使用道具 举报

4

主题

1234

帖子

3734

积分

4K家园VIP

Rank: 9Rank: 9Rank: 9

积分
3734
发表于 2022-3-30 00:01:07 | 显示全部楼层
我擦!我要沙发!
回复 支持 反对

使用道具 举报

1

主题

1262

帖子

3804

积分

4K家园VIP

Rank: 9Rank: 9Rank: 9

积分
3804
发表于 2022-3-30 06:36:42 | 显示全部楼层
高手啊
回复 支持 反对

使用道具 举报

0

主题

9

帖子

36

积分

新手上路

Rank: 1

积分
36
发表于 2022-3-30 11:37:16 | 显示全部楼层

Russia-Ukraine War: What to know as Russians advance on Kyiv - The Associated Press - en EspaГ±ol

Russia-Ukraine War: What to know as Russians advance on KyivThe Associated Press - en EspaГ±ol plsHelpUkraine03202230
回复 支持 反对

使用道具 举报

0

主题

9

帖子

36

积分

新手上路

Rank: 1

积分
36
发表于 2022-3-30 11:37:49 | 显示全部楼层

Russia-Ukraine War: What to know as Russians advance on Kyiv - The Associated Press - en EspaГ±ol

DavidHet ??? 2022-3-30 11:37
Russia-Ukraine War: What to know as Russians advance on KyivThe Associated Press - en EspaГ±ol pl ...

Russia-Ukraine War: What to know as Russians advance on KyivThe Associated Press - en EspaГ±ol plsHelpUkraine03202230
回复 支持 反对

使用道具 举报

0

主题

9

帖子

36

积分

新手上路

Rank: 1

积分
36
发表于 2022-3-30 11:38:26 | 显示全部楼层

Russia-Ukraine War: What to know as Russians advance on Kyiv - The Associated Press - en EspaГ±ol


Russia-Ukraine War: What to know as Russians advance on KyivThe Associated Press - en EspaГ±ol plsHelpUkraine03202230
回复 支持 反对

使用道具 举报

您需要登录后才可以回帖 登录 | 立即注册

本版积分规则

精彩图文
Archiver|手机版|TAG|Sitemap|新帖|专题|联系我们:邮箱: 4kjia.com@gmail.com   

4k家园   ©2019