[国家地理] [4K国家地理] 蓝色音符 (2022) [2160P/MKV/428MB]

[复制链接]

2846

主题

3211

帖子

2万

积分

超级版主

Rank: 8Rank: 8

积分
27159
 楼主| 发表于 2022-5-26 11:17:47 | 显示全部楼层 |阅读模式
本帖最后由 叽里呱啦 于 2022-5-26 11:17 编辑

СИНИЕ НОТЫ.mkv_20220329_212353.466.jpg СИНИЕ НОТЫ.mkv_20220329_212359.595.jpg СИНИЕ НОТЫ.mkv_20220329_212420.195.jpg СИНИЕ НОТЫ.mkv_20220329_212434.259.jpg СИНИЕ НОТЫ.mkv_20220329_212441.484.jpg СИНИЕ НОТЫ.mkv_20220329_212429.516.jpg

电影信息
标题: Blue Notes
发行年份: 2022
国家:希腊
时间: 00 :02:35
类型: 壮观
导演: Nicos Mavrokefalos

关于电影:

        Cape Lefkada 是 Lefkada 岛的最南端。远远望去,它的尽头就像一座又长又高的悬崖。在尽头,您会看到建于 1890 年的杜卡托灯塔。


General
Complete name                  : F:\4K国家地理\蓝色音符.mkv
Format                         : Matroska
Format version                 : Version 4
File size                      : 428 MiB
Duration                       : 2 min 35 s
Overall bit rate               : 23.1 Mb/s
Encoded date                   : UTC 2022-03-27 12:24:25
Writing application            : mkvmerge v65.0.0 ('Too Much') 64-bit
Writing library                : libebml v1.4.2 + libmatroska v1.6.4

Video
ID                             : 1
Format                         : AVC
Format/Info                    : Advanced Video Codec
Format profile                 : High@L5.2
Format settings                : CABAC / 5 Ref Frames
Format settings, CABAC         : Yes
Format settings, Reference fra : 5 frames
Codec ID                       : V_MPEG4/ISO/AVC
Duration                       : 2 min 35 s
Bit rate                       : 22.9 Mb/s
Width                          : 3 840 pixels
Height                         : 2 160 pixels
Display aspect ratio           : 16:9
Frame rate mode                : Constant
Frame rate                     : 25.000 FPS
Color space                    : YUV
Chroma subsampling             : 4:2:0
Bit depth                      : 8 bits
Scan type                      : Progressive
Bits/(Pixel*Frame)             : 0.110
Stream size                    : 424 MiB (99%)
Writing library                : x264 core 164 r10 d9a19f0
Encoding settings              : cabac=1 / ref=5 / deblock=1:0:0 / analyse=0x3:0x113 / me=hex / subme=8 / psy=1 / psy_rd=1.00:0.00 / mixed_ref=1 / me_range=16 / chroma_me=1 / trellis=2 / 8x8dct=1 / cqm=0 / deadzone=21,11 / fast_pskip=1 / chroma_qp_offset=-2 / threads=48 / lookahead_threads=8 / sliced_threads=0 / nr=0 / decimate=1 / interlaced=0 / bluray_compat=0 / stitchable=1 / constrained_intra=0 / bframes=3 / b_pyramid=2 / b_adapt=2 / b_bias=0 / direct=3 / weightb=1 / open_gop=0 / weightp=2 / keyint=infinite / keyint_min=25 / scenecut=40 / intra_refresh=0 / rc_lookahead=50 / rc=crf / mbtree=1 / crf=20.0 / qcomp=0.60 / qpmin=5 / qpmax=69 / qpstep=4 / vbv_maxrate=24200 / vbv_bufsize=66000 / crf_max=0.0 / nal_hrd=none / filler=0 / ip_ratio=1.40 / aq=1:1.00
Default                        : Yes
Forced                         : No
Color range                    : Limited
Color primaries                : BT.709
Transfer characteristics       : BT.709
Matrix coefficients            : BT.709

Audio
ID                             : 2
Format                         : AAC LC
Format/Info                    : Advanced Audio Codec Low Complexity
Codec ID                       : A_AAC-2
Duration                       : 2 min 35 s
Bit rate                       : 253 kb/s
Channel(s)                     : 2 channels
Channel layout                 : L R
Sampling rate                  : 48.0 kHz
Frame rate                     : 46.875 FPS (1024 SPF)
Compression mode               : Lossy
Stream size                    : 4.69 MiB (1%)
Default                        : Yes
Forced                         : No

下载地址  

****此区域为收费内容****    需支付 15 金币后可查看立即购买






上一篇:[4K国家地理] 锡罗斯岛 (2021) [2160P/MKV/473MB]
下一篇:[4K国家地理] 挪威--北部壮观冬季仙境 (2019-2022) [2160P/MKV/1.23GB]
回复

使用道具 举报

2

主题

1398

帖子

4218

积分

4K家园VIP

Rank: 9Rank: 9Rank: 9

积分
4218
发表于 2022-5-26 11:17:52 | 显示全部楼层
高手啊
回复 支持 反对

使用道具 举报

0

主题

8625

帖子

2万

积分

4K家园VIP

Rank: 9Rank: 9Rank: 9

积分
20076
发表于 2022-5-26 11:42:57 | 显示全部楼层
希臘杜卡托燈塔4k
回复 支持 反对

使用道具 举报

4

主题

1446

帖子

4182

积分

4K家园VIP

Rank: 9Rank: 9Rank: 9

积分
4182
发表于 2022-5-26 23:37:15 来自手机 | 显示全部楼层
4K家园资源不错,前排支持
回复 支持 反对

使用道具 举报

0

主题

5

帖子

46

积分

新手上路

Rank: 1

积分
46
发表于 2022-5-27 07:53:40 | 显示全部楼层
路过支持一下
回复 支持 反对

使用道具 举报

62

主题

1615

帖子

4681

积分

4K家园VIP

Rank: 9Rank: 9Rank: 9

积分
4681
发表于 2022-5-29 03:30:33 | 显示全部楼层
纯粹路过,没任何兴趣,仅仅是看在老用户份上回复一下
回复 支持 反对

使用道具 举报

0

主题

4

帖子

15

积分

新手上路

Rank: 1

积分
15
发表于 2022-5-29 15:05:00 | 显示全部楼层
不错,支持
回复

使用道具 举报

2

主题

1689

帖子

4655

积分

4K家园VIP

Rank: 9Rank: 9Rank: 9

积分
4655
发表于 2022-6-2 10:22:36 来自手机 | 显示全部楼层
站位支持
回复 支持 反对

使用道具 举报

1

主题

1428

帖子

4100

积分

4K家园VIP

Rank: 9Rank: 9Rank: 9

积分
4100
发表于 2022-6-3 11:33:14 | 显示全部楼层
一直在看
回复 支持 反对

使用道具 举报

0

主题

3

帖子

16

积分

新手上路

Rank: 1

积分
16
发表于 2022-6-10 10:32:11 | 显示全部楼层
高手啊,厉害,太美了!!!
回复 支持 反对

使用道具 举报

您需要登录后才可以回帖 登录 | 立即注册

本版积分规则

精彩图文
Archiver|手机版|TAG|Sitemap|新帖|专题|联系我们:邮箱: 4kjia.com@gmail.com   

4k家园   ©2019