[国家地理] [4K国家地理] 挪威--北部壮观冬季仙境 (2019-2022) [2160P/MKV/1.23GB]

[复制链接]

2770

主题

3128

帖子

2万

积分

超级版主

Rank: 8Rank: 8

积分
26227
 楼主| 发表于 2022-4-19 20:22:44 | 显示全部楼层 |阅读模式
本帖最后由 叽里呱啦 于 2022-4-19 20:22 编辑

01. НОРВЕГИЯ.mkv_20220329_213305.169.jpg 01. НОРВЕГИЯ.mkv_20220329_213313.843.jpg 01. НОРВЕГИЯ.mkv_20220329_213319.395.jpg 01. НОРВЕГИЯ.mkv_20220329_213325.371.jpg 02. АРКТИЧЕСКИЕ ПЕЙЗАЖИ НОРВЕГИИ.mkv_20220329_213341.223.jpg 02. АРКТИЧЕСКИЕ ПЕЙЗАЖИ НОРВЕГИИ.mkv_20220329_213347.515.jpg 02. АРКТИЧЕСКИЕ ПЕЙЗАЖИ НОРВЕГИИ.mkv_20220329_213353.515.jpg 02. АРКТИЧЕСКИЕ ПЕЙЗАЖИ НОРВЕГИИ.mkv_20220329_213413.547.jpg

名称:冬季仙境- 挪威
发行年份: 2019-2022
国家:挪威
时间: 00 :10:07
类型: 壮观
导演:阿德里安·莫杜特

关于电影:

       延续挪威北部北极景观的冬季仙境系列,我在过去 2 周内拍摄了这些片段,无法等不及要与您分享。这些是我在职业生涯中拍摄的一些最原始、超现实和空灵的场景,因为条件完美匹配。
General
Complete name                  : F:\4K国家地理\ЗИМНЯЯ СКАЗКА\01. 挪威--北部壮观冬季仙境.mkv
Format                         : Matroska
Format version                 : Version 4
File size                      : 662 MiB
Duration                       : 4 min 37 s
Overall bit rate               : 20.0 Mb/s
Encoded date                   : UTC 2022-03-28 07:45:30
Writing application            : mkvmerge v65.0.0 ('Too Much') 64-bit
Writing library                : libebml v1.4.2 + libmatroska v1.6.4

Video
ID                             : 1
Format                         : AVC
Format/Info                    : Advanced Video Codec
Format profile                 : High@L5.2
Format settings                : CABAC / 5 Ref Frames
Format settings, CABAC         : Yes
Format settings, Reference fra : 5 frames
Codec ID                       : V_MPEG4/ISO/AVC
Duration                       : 4 min 37 s
Bit rate                       : 19.9 Mb/s
Width                          : 3 840 pixels
Height                         : 2 160 pixels
Display aspect ratio           : 16:9
Frame rate mode                : Constant
Frame rate                     : 29.970 (30000/1001) FPS
Color space                    : YUV
Chroma subsampling             : 4:2:0
Bit depth                      : 8 bits
Scan type                      : Progressive
Bits/(Pixel*Frame)             : 0.080
Stream size                    : 657 MiB (99%)
Writing library                : x264 core 157 r10 545de2f
Encoding settings              : cabac=1 / ref=5 / deblock=1:0:0 / analyse=0x3:0x113 / me=hex / subme=8 / psy=1 / psy_rd=1.00:0.00 / mixed_ref=1 / me_range=16 / chroma_me=1 / trellis=2 / 8x8dct=1 / cqm=0 / deadzone=21,11 / fast_pskip=1 / chroma_qp_offset=-2 / threads=48 / lookahead_threads=8 / sliced_threads=0 / nr=0 / decimate=1 / interlaced=0 / bluray_compat=0 / stitchable=1 / constrained_intra=0 / bframes=3 / b_pyramid=2 / b_adapt=2 / b_bias=0 / direct=3 / weightb=1 / open_gop=0 / weightp=2 / keyint=infinite / keyint_min=29 / scenecut=40 / intra_refresh=0 / rc_lookahead=50 / rc=crf / mbtree=1 / crf=20.0 / qcomp=0.60 / qpmin=5 / qpmax=69 / qpstep=4 / vbv_maxrate=24200 / vbv_bufsize=66000 / crf_max=0.0 / nal_hrd=none / filler=0 / ip_ratio=1.40 / aq=1:1.00
Default                        : Yes
Forced                         : No
Color range                    : Limited
Color primaries                : BT.709
Transfer characteristics       : BT.709
Matrix coefficients            : BT.709

Audio
ID                             : 2
Format                         : AAC LC
Format/Info                    : Advanced Audio Codec Low Complexity
Codec ID                       : A_AAC-2
Duration                       : 4 min 37 s
Bit rate                       : 137 kb/s
Channel(s)                     : 2 channels
Channel layout                 : L R
Sampling rate                  : 48.0 kHz
Frame rate                     : 46.875 FPS (1024 SPF)
Compression mode               : Lossy
Delay relative to video        : -66 ms
Stream size                    : 4.53 MiB (1%)
Default                        : Yes
Forced                         : No
General
Complete name                  : F:\4K国家地理\ЗИМНЯЯ СКАЗКА\02. 挪威--北部壮观冬季仙境.mkv
Format                         : Matroska
Format version                 : Version 4
File size                      : 594 MiB
Duration                       : 5 min 29 s
Overall bit rate               : 15.1 Mb/s
Encoded date                   : UTC 2022-03-28 08:10:00
Writing application            : mkvmerge v65.0.0 ('Too Much') 64-bit
Writing library                : libebml v1.4.2 + libmatroska v1.6.4

Video
ID                             : 1
Format                         : AVC
Format/Info                    : Advanced Video Codec
Format profile                 : High@L5.2
Format settings                : CABAC / 5 Ref Frames
Format settings, CABAC         : Yes
Format settings, Reference fra : 5 frames
Codec ID                       : V_MPEG4/ISO/AVC
Duration                       : 5 min 29 s
Bit rate                       : 14.9 Mb/s
Width                          : 3 840 pixels
Height                         : 2 160 pixels
Display aspect ratio           : 16:9
Frame rate mode                : Constant
Frame rate                     : 23.976 (24000/1001) FPS
Color space                    : YUV
Chroma subsampling             : 4:2:0
Bit depth                      : 8 bits
Scan type                      : Progressive
Bits/(Pixel*Frame)             : 0.075
Stream size                    : 584 MiB (98%)
Writing library                : x264 core 164 r10 0bb85e8
Encoding settings              : cabac=1 / ref=5 / deblock=1:0:0 / analyse=0x3:0x113 / me=hex / subme=8 / psy=1 / psy_rd=1.00:0.00 / mixed_ref=1 / me_range=16 / chroma_me=1 / trellis=2 / 8x8dct=1 / cqm=0 / deadzone=21,11 / fast_pskip=1 / chroma_qp_offset=-2 / threads=48 / lookahead_threads=8 / sliced_threads=0 / nr=0 / decimate=1 / interlaced=0 / bluray_compat=0 / stitchable=1 / constrained_intra=0 / bframes=3 / b_pyramid=2 / b_adapt=2 / b_bias=0 / direct=3 / weightb=1 / open_gop=0 / weightp=2 / keyint=infinite / keyint_min=23 / scenecut=40 / intra_refresh=0 / rc_lookahead=50 / rc=crf / mbtree=1 / crf=20.0 / qcomp=0.60 / qpmin=5 / qpmax=69 / qpstep=4 / vbv_maxrate=24200 / vbv_bufsize=66000 / crf_max=0.0 / nal_hrd=none / filler=0 / ip_ratio=1.40 / aq=1:1.00
Default                        : Yes
Forced                         : No
Color range                    : Limited
Color primaries                : BT.709
Transfer characteristics       : BT.709
Matrix coefficients            : BT.709

Audio
ID                             : 2
Format                         : AAC LC
Format/Info                    : Advanced Audio Codec Low Complexity
Codec ID                       : A_AAC-2
Duration                       : 5 min 29 s
Bit rate                       : 253 kb/s
Channel(s)                     : 2 channels
Channel layout                 : L R
Sampling rate                  : 48.0 kHz
Frame rate                     : 46.875 FPS (1024 SPF)
Compression mode               : Lossy
Delay relative to video        : -83 ms
Stream size                    : 9.96 MiB (2%)
Default                        : Yes
Forced                         : No

下载地址:

****此区域为收费内容****    需支付 15 金币后可查看立即购买






上一篇:[4K国家地理] 锡罗斯岛 (2021) [2160P/MKV/473MB]
下一篇:[4K国家地理] 希腊的代达罗斯 (2021) [2160P/MKV/938MB]
回复

使用道具 举报

0

主题

1566

帖子

4298

积分

4K家园VIP

Rank: 9Rank: 9Rank: 9

积分
4298
发表于 2022-4-19 20:22:49 来自手机 | 显示全部楼层
众里寻他千百度,蓦然回首在这里!
回复 支持 反对

使用道具 举报

0

主题

8230

帖子

1万

积分

4K家园VIP

Rank: 9Rank: 9Rank: 9

积分
18830
发表于 2022-4-19 20:55:27 | 显示全部楼层
挪威★北部壯觀冬季仙境4k
回复 支持 反对

使用道具 举报

0

主题

1

帖子

105

积分

新手上路

Rank: 1

积分
105
发表于 2022-4-20 07:09:29 | 显示全部楼层
谢谢楼主分享
回复 支持 反对

使用道具 举报

0

主题

1714

帖子

4750

积分

4K家园VIP

Rank: 9Rank: 9Rank: 9

积分
4750
发表于 2022-4-20 11:50:37 | 显示全部楼层
LZ是天才,坚定完毕
回复 支持 反对

使用道具 举报

1

主题

1391

帖子

4021

积分

4K家园VIP

Rank: 9Rank: 9Rank: 9

积分
4021
发表于 2022-4-20 14:29:31 | 显示全部楼层
介是神马?!!
回复 支持 反对

使用道具 举报

3

主题

1295

帖子

3907

积分

4K家园VIP

Rank: 9Rank: 9Rank: 9

积分
3907
发表于 2022-4-21 06:23:43 | 显示全部楼层
路过
回复 支持 反对

使用道具 举报

2

主题

1348

帖子

3880

积分

4K家园VIP

Rank: 9Rank: 9Rank: 9

积分
3880
发表于 2022-4-22 01:46:11 来自手机 | 显示全部楼层
广告位,,坐下看看
回复 支持 反对

使用道具 举报

0

主题

9

帖子

22

积分

新手上路

Rank: 1

积分
22
发表于 2022-5-6 08:24:56 | 显示全部楼层
111111111111111111
回复 支持 反对

使用道具 举报

您需要登录后才可以回帖 登录 | 立即注册

本版积分规则

精彩图文
Archiver|手机版|TAG|Sitemap|新帖|专题|联系我们:邮箱: 4kjia.com@gmail.com   

4k家园   ©2019