[4K韩国女团] 2021 LUNARSOLAR - DADADA (Performance Video) [2160P/MP4/333MB]

[复制链接]

2770

主题

3128

帖子

2万

积分

超级版主

Rank: 8Rank: 8

积分
26227
 楼主| 发表于 2022-3-30 12:25:00 | 显示全部楼层 |阅读模式
LUNARSOLAR - DADADA (Performance Video) 4k.mp4_20220330_120633.550.jpg LUNARSOLAR - DADADA (Performance Video) 4k.mp4_20220330_120653.875.jpg LUNARSOLAR - DADADA (Performance Video) 4k.mp4_20220330_120659.699.jpg LUNARSOLAR - DADADA (Performance Video) 4k.mp4_20220330_120709.731.jpg LUNARSOLAR - DADADA (Performance Video) 4k.mp4_20220330_120716.891.jpg LUNARSOLAR - DADADA (Performance Video) 4k.mp4_20220330_120728.723.jpg

General
Complete name                  : E:\4K@MV\4K MV\LUNARSOLAR - DADADA (Performance Video) 4k.mp4
Format                         : MPEG-4
Format profile                 : Base Media
Codec ID                       : isom (isom/iso2/avc1/mp41)
File size                      : 334 MiB
Duration                       : 3 min 2 s
Overall bit rate               : 15.3 Mb/s
Writing application            : Lavf58.12.100
exvr                           : EX1.8.2(C1.0.9)

Video
ID                             : 1
Format                         : AVC
Format/Info                    : Advanced Video Codec
Format profile                 : High@L5.1
Format settings                : CABAC / 4 Ref Frames
Format settings, CABAC         : Yes
Format settings, Reference fra : 4 frames
Codec ID                       : avc1
Codec ID/Info                  : Advanced Video Coding
Duration                       : 3 min 2 s
Bit rate                       : 15.1 Mb/s
Width                          : 3 840 pixels
Height                         : 2 160 pixels
Display aspect ratio           : 16:9
Frame rate mode                : Constant
Frame rate                     : 23.976 (23976/1000) FPS
Color space                    : YUV
Chroma subsampling             : 4:2:0
Bit depth                      : 8 bits
Scan type                      : Progressive
Bits/(Pixel*Frame)             : 0.076
Stream size                    : 329 MiB (99%)
Color range                    : Limited
Color primaries                : BT.709
Transfer characteristics       : BT.709
Matrix coefficients            : BT.709
Codec configuration box        : avcC

Audio
ID                             : 2
Format                         : AAC LC
Format/Info                    : Advanced Audio Codec Low Complexity
Codec ID                       : mp4a-40-2
Duration                       : 3 min 2 s
Bit rate mode                  : Constant
Bit rate                       : 192 kb/s
Channel(s)                     : 2 channels
Channel layout                 : L R
Sampling rate                  : 48.0 kHz
Frame rate                     : 46.875 FPS (1024 SPF)
Compression mode               : Lossy
Stream size                    : 4.18 MiB (1%)
Default                        : Yes
Alternate group                : 1
下载地址:

****此区域为收费内容****    需支付 15 金币后可查看立即购买

PS:小水管制作不易,下载后请自觉做种,谢谢!
提供2010-2022年本人多年来珍藏优质[4K、8K、16K(25-120fps)] 高品质韩国(女团)MV、各种演示片、测试片等4K韩国MV“珍藏版”视频硬盘有偿拷贝或网盘分享,最新4K视频每天更新中,需要的联系本楼主!





上一篇:[4K韩国女团] 2022 Hyolyn - A-Ha 4k [2160P/MP4/683MB]
下一篇:[4K MV] 2021 LEE JIN HYUK - 4k [2160P/MP4/276MB]
回复

使用道具 举报

42

主题

1514

帖子

4354

积分

4K家园VIP

Rank: 9Rank: 9Rank: 9

积分
4354
发表于 2022-3-30 12:25:05 | 显示全部楼层
纯粹路过,没任何兴趣,仅仅是看在老用户份上回复一下
回复 支持 反对

使用道具 举报

48

主题

1592

帖子

4592

积分

4K家园VIP

Rank: 9Rank: 9Rank: 9

积分
4592
发表于 2022-3-30 14:13:53 | 显示全部楼层
回复 支持 反对

使用道具 举报

0

主题

10

帖子

42

积分

新手上路

Rank: 1

积分
42
发表于 2022-3-30 17:44:41 来自手机 | 显示全部楼层
我觉得挺好看的啊,我喜欢
回复 支持 反对

使用道具 举报

56

主题

1545

帖子

4519

积分

4K家园VIP

Rank: 9Rank: 9Rank: 9

积分
4519
发表于 2022-3-31 00:00:07 | 显示全部楼层
前排,哇咔咔
回复 支持 反对

使用道具 举报

40

主题

1496

帖子

4292

积分

4K家园VIP

Rank: 9Rank: 9Rank: 9

积分
4292
发表于 2022-3-31 01:04:45 | 显示全部楼层
什么东西啊
回复 支持 反对

使用道具 举报

30

主题

1219

帖子

3635

积分

4K家园VIP

Rank: 9Rank: 9Rank: 9

积分
3635
发表于 2022-3-31 04:52:14 | 显示全部楼层
顶顶更健康
回复 支持 反对

使用道具 举报

您需要登录后才可以回帖 登录 | 立即注册

本版积分规则

精彩图文
Archiver|手机版|TAG|Sitemap|新帖|专题|联系我们:邮箱: 4kjia.com@gmail.com   

4k家园   ©2019