[4K MV] 2021 LEE JIN HYUK - 4k [2160P/MP4/276MB]

[复制链接]

主题

帖子

0

积分

超级版主

Rank: 8Rank: 8

积分
0
 楼主| 发表于 2022-5-16 21:18:55 | 显示全部楼层 |阅读模式

2021 LEE JIN HYUK - 4k www.4kjia.com.mp4_20220330_122940.075.jpg 2021 LEE JIN HYUK - 4k www.4kjia.com.mp4_20220330_122947.154.jpg 2021 LEE JIN HYUK - 4k www.4kjia.com.mp4_20220330_123000.291.jpg 2021 LEE JIN HYUK - 4k www.4kjia.com.mp4_20220330_123009.730.jpg 2021 LEE JIN HYUK - 4k www.4kjia.com.mp4_20220330_123020.067.jpg 2021 LEE JIN HYUK - 4k www.4kjia.com.mp4_20220330_123031.627.jpg

General
Complete name                  : E:\4K MV\2021 LEE JIN HYUK - 4k www.4kjia.com.mp4
Format                         : MPEG-4
Format profile                 : Base Media
Codec ID                       : isom (isom/iso2/avc1/mp41)
File size                      : 276 MiB
Duration                       : 3 min 16 s
Overall bit rate               : 11.8 Mb/s
Writing application            : Lavf58.12.100
exvr                           : EX1.8.2(C1.0.9)

Video
ID                             : 1
Format                         : AVC
Format/Info                    : Advanced Video Codec
Format profile                 : High@L5.1
Format settings                : CABAC / 4 Ref Frames
Format settings, CABAC         : Yes
Format settings, Reference fra : 4 frames
Codec ID                       : avc1
Codec ID/Info                  : Advanced Video Coding
Duration                       : 3 min 16 s
Bit rate                       : 11.6 Mb/s
Width                          : 3 840 pixels
Height                         : 2 160 pixels
Display aspect ratio           : 16:9
Frame rate mode                : Constant
Frame rate                     : 23.976 (23976/1000) FPS
Color space                    : YUV
Chroma subsampling             : 4:2:0
Bit depth                      : 8 bits
Scan type                      : Progressive
Bits/(Pixel*Frame)             : 0.058
Stream size                    : 272 MiB (98%)
Color range                    : Limited
Color primaries                : BT.709
Transfer characteristics       : BT.709
Matrix coefficients            : BT.709
Codec configuration box        : avcC

Audio
ID                             : 2
Format                         : AAC LC
Format/Info                    : Advanced Audio Codec Low Complexity
Codec ID                       : mp4a-40-2
Duration                       : 3 min 16 s
Bit rate mode                  : Constant
Bit rate                       : 192 kb/s
Channel(s)                     : 2 channels
Channel layout                 : L R
Sampling rate                  : 48.0 kHz
Frame rate                     : 46.875 FPS (1024 SPF)
Compression mode               : Lossy
Stream size                    : 4.49 MiB (2%)
Default                        : Yes
Alternate group                : 1
下载地址:

****此区域为收费内容****    需支付 15 金币后可查看立即购买

PS:小水管制作不易,下载后请自觉做种,谢谢!
提供2010-2022年本人多年来珍藏优质[4K、8K、16K(25-120fps)] 高品质韩国(女团)MV、各种演示片、测试片等4K韩国MV“珍藏版”视频硬盘有偿拷贝或网盘分享,最新4K视频每天更新中,需要的联系本楼主!





上一篇:[4K韩国女团] 2021 LUNARSOLAR - DADADA (Performance Video) [2160P/MP4/333MB]
下一篇:[4K韩国女团] 2021 TRI.BE - RUB-A-DUM (PERFORMANCE) 4k [2160P/MP4/439MB]
回复

使用道具 举报

2

主题

1215

帖子

3663

积分

4K家园VIP

Rank: 9Rank: 9Rank: 9

积分
3663
发表于 2022-5-16 21:19:05 | 显示全部楼层
有空一起交流一下
回复 支持 反对

使用道具 举报

61

主题

1537

帖子

4435

积分

4K家园VIP

Rank: 9Rank: 9Rank: 9

积分
4435
发表于 2022-5-16 23:45:18 | 显示全部楼层
体验下4K版的
回复 支持 反对

使用道具 举报

主题

帖子

183

积分

新手上路

Rank: 1

积分
183
发表于 2022-5-17 13:22:36 | 显示全部楼层

资源不错,下个看看
回复 支持 反对

使用道具 举报

59

主题

1613

帖子

4632

积分

4K家园VIP

Rank: 9Rank: 9Rank: 9

积分
4632
发表于 2022-5-17 21:27:58 | 显示全部楼层
小白一个 顶一下
回复 支持 反对

使用道具 举报

2

主题

1406

帖子

4038

积分

4K家园VIP

Rank: 9Rank: 9Rank: 9

积分
4038
发表于 2022-5-18 19:41:09 | 显示全部楼层
正需要
回复 支持 反对

使用道具 举报

1

主题

1409

帖子

4245

积分

4K家园VIP

Rank: 9Rank: 9Rank: 9

积分
4245
发表于 2022-5-19 04:45:31 来自手机 | 显示全部楼层
好帖必须得顶起
回复 支持 反对

使用道具 举报

您需要登录后才可以回帖 登录 | 立即注册

本版积分规则

精彩图文
Archiver|手机版|TAG|Sitemap|新帖|专题|联系我们:邮箱: 4kjia.com@gmail.com   

4k家园   ©2019