[4K韩国女团] 2021 TRI.BE - RUB-A-DUM (PERFORMANCE) 4k [2160P/MP4/439MB]

[复制链接]

2770

主题

3128

帖子

2万

积分

超级版主

Rank: 8Rank: 8

积分
26227
 楼主| 发表于 2022-4-2 20:51:59 | 显示全部楼层 |阅读模式
本帖最后由 叽里呱啦 于 2022-4-2 20:51 编辑

TRI.BE - RUB-A-DUM (PERFORMANCE) 4k【www.4kjia.com】.mp4_20220330_124007.191.jpg TRI.BE - RUB-A-DUM (PERFORMANCE) 4k【www.4kjia.com】.mp4_20220330_124015.050.jpg TRI.BE - RUB-A-DUM (PERFORMANCE) 4k【www.4kjia.com】.mp4_20220330_124042.090.jpg TRI.BE - RUB-A-DUM (PERFORMANCE) 4k【www.4kjia.com】.mp4_20220330_124057.203.jpg TRI.BE - RUB-A-DUM (PERFORMANCE) 4k【www.4kjia.com】.mp4_20220330_124103.219.jpg TRI.BE - RUB-A-DUM (PERFORMANCE) 4k【www.4kjia.com】.mp4_20220330_124108.194.jpg

General
Complete name                  : E:\4K MV\TRI.BE - RUB-A-DUM (PERFORMANCE) 4k【www.4kjia.com】.mp4
Format                         : MPEG-4
Format profile                 : Base Media
Codec ID                       : isom (isom/iso2/avc1/mp41)
File size                      : 440 MiB
Duration                       : 3 min 20 s
Overall bit rate               : 18.4 Mb/s
Writing application            : Lavf58.12.100
exvr                           : EX1.8.2(C1.0.9)

Video
ID                             : 1
Format                         : AVC
Format/Info                    : Advanced Video Codec
Format profile                 : High@L5.1
Format settings                : CABAC / 4 Ref Frames
Format settings, CABAC         : Yes
Format settings, Reference fra : 4 frames
Codec ID                       : avc1
Codec ID/Info                  : Advanced Video Coding
Duration                       : 3 min 20 s
Bit rate                       : 18.3 Mb/s
Width                          : 3 840 pixels
Height                         : 2 160 pixels
Display aspect ratio           : 16:9
Frame rate mode                : Constant
Frame rate                     : 23.976 (23976/1000) FPS
Color space                    : YUV
Chroma subsampling             : 4:2:0
Bit depth                      : 8 bits
Scan type                      : Progressive
Bits/(Pixel*Frame)             : 0.092
Stream size                    : 435 MiB (99%)
Codec configuration box        : avcC

Audio
ID                             : 2
Format                         : AAC LC
Format/Info                    : Advanced Audio Codec Low Complexity
Codec ID                       : mp4a-40-2
Duration                       : 3 min 20 s
Bit rate mode                  : Constant
Bit rate                       : 192 kb/s
Channel(s)                     : 2 channels
Channel layout                 : L R
Sampling rate                  : 48.0 kHz
Frame rate                     : 46.875 FPS (1024 SPF)
Compression mode               : Lossy
Stream size                    : 4.58 MiB (1%)
Default                        : Yes
Alternate group                : 1

下载地址:

****此区域为收费内容****    需支付 25 金币后可查看立即购买

PS:小水管制作不易,下载后请自觉做种,谢谢!
提供2010-2022年本人多年来珍藏优质[4K、8K、16K(25-120fps)] 高品质韩国(女团)MV、各种演示片、测试片等4K韩国MV“珍藏版”视频硬盘有偿拷贝或网盘分享,最新4K视频每天更新中,需要的联系本楼主!





上一篇:[4K MV] 2021 LEE JIN HYUK - 4k [2160P/MP4/276MB]
下一篇:[4K女团] 2022 YENA - Smiley (Performance Video) [2160P/MP4/383MB]
回复

使用道具 举报

2

主题

1350

帖子

3918

积分

4K家园VIP

Rank: 9Rank: 9Rank: 9

积分
3918
发表于 2022-4-2 20:52:04 | 显示全部楼层
发发呆,回回帖,工作结束~
回复 支持 反对

使用道具 举报

2

主题

1734

帖子

4836

积分

4K家园VIP

Rank: 9Rank: 9Rank: 9

积分
4836
发表于 2022-4-3 02:46:31 | 显示全部楼层
路过的帮顶
回复 支持 反对

使用道具 举报

2

主题

1455

帖子

4201

积分

4K家园VIP

Rank: 9Rank: 9Rank: 9

积分
4201
发表于 2022-4-3 09:05:37 | 显示全部楼层
4K家园不错,希望这种资源越多越好
回复 支持 反对

使用道具 举报

4

主题

1354

帖子

4073

积分

4K家园VIP

Rank: 9Rank: 9Rank: 9

积分
4073
发表于 2022-4-4 01:51:45 | 显示全部楼层
呵呵。。。
回复 支持 反对

使用道具 举报

1

主题

1388

帖子

4018

积分

4K家园VIP

Rank: 9Rank: 9Rank: 9

积分
4018
发表于 2022-4-5 03:27:39 | 显示全部楼层
OMG!介是啥东东!!!
回复 支持 反对

使用道具 举报

0

主题

1

帖子

6

积分

新手上路

Rank: 1

积分
6
发表于 2022-5-10 20:03:28 | 显示全部楼层
第一次逛 还不懂
回复 支持 反对

使用道具 举报

0

主题

714

帖子

2510

积分

注册会员

Rank: 2

积分
2510
发表于 前天 21:23 | 显示全部楼层
感谢楼主分享
回复 支持 反对

使用道具 举报

您需要登录后才可以回帖 登录 | 立即注册

本版积分规则

精彩图文
Archiver|手机版|TAG|Sitemap|新帖|专题|联系我们:邮箱: 4kjia.com@gmail.com   

4k家园   ©2019