[4K电影] 承包商 / The Contractor (2022) 4K高清版本下载

[复制链接]

1723

主题

1856

帖子

1万

积分

超级版主

Rank: 8Rank: 8

积分
14024
 楼主| 发表于 2022-4-1 12:10:21 | 显示全部楼层 |阅读模式

QQ图片20220401120835_副本.png
◎译  名 承包商/救命缉约(台)/暴力行动/契约者/Violence of Action
◎片  名 The Contractor
◎年  代 2022
◎产  地 美国
◎类  别 动作/惊悚
◎语  言 英语
◎上映日期 2022-04-01(美国)
◎IMDb评分  5.9/10 from 404 users
◎IMDb链接  https://www.imdb.com/title/tt10323676/
◎豆瓣评分 /10 from 0 users
◎豆瓣链接 https://movie.douban.com/subject/33442722/
◎导  演 塔里克·萨利赫 Tarik Saleh
◎编  剧 J·P·戴维斯 J.P. Davis
◎主  演 克里斯·派恩 Chris Pine
      基弗·萨瑟兰 Kiefer Sutherland
      本·福斯特 Ben Foster
      吉莉安·雅各布斯 Gillian Jacobs
      埃迪·马森 Eddie Marsan
      泰特·弗莱彻 Tait Fletcher
      弗罗里安·穆特鲁 Florian Munteanu
      法瑞斯·法瑞斯 Fares Fares
      尼娜·霍斯 Nina Hoss
      J.D.普拉多 J.D. Pardo
      阿蜜拉·卡萨 Amira Casar
      亚力克桑杰·麦沃洛夫 Alexej Manvelov
      马修·马什 Matthew Marsh
      泰娜·拉欣 Tyner Rushing
      帕蒂·舍尔哈斯 Patti Schellhaas
      乔治·皮斯特拉努 George Pistereanu
      科里·斯科特·艾伦 Cory Scott Allen
      里贾纳·陈婷 Regina Ting Chen
      蒂莫西·卡尔 Timothy Carr
      金 King
      山德·托马斯 Sander Thomas
      杰克琳·怀特 Jaclyn White


◎简  介


  神秘契约背后隐藏的危机,原来是一场精心策划的致命阴谋。身处异国孤军奋战,该如何杀出重围、活着回家?
  故事讲述被迫从海军陆战队退伍后,詹姆斯·里德(克里斯·派恩 饰)加入了一个准军事组织来维持生计。第一次执行任务时,里德就在东欧遭到追捕。他必须努力活到足够长的时间才能回家,并找出背叛他的人的真正动机。

Video
ID : 1
Format : HEVC
Format/Info : High Efficiency Video Coding
Format profile : Main 10@L5@Main
HDR format : SMPTE ST 2094 App 4, Version 1, HDR10+ Profile B compatible
Codec ID : V_MPEGH/ISO/HEVC
Duration : 1 h 43 min
Bit rate : 14.9 Mb/s
Width : 3 840 pixels
Height : 1 600 pixels
Display aspect ratio : 2.40:1
Frame rate mode : Constant
Frame rate : 23.976 (24000/1001) FPS
Color space : YUV
Chroma subsampling : 4:2:0
Bit depth : 10 bits
Bits/(Pixel*Frame) : 0.101
Stream size : 10.8 GiB (96%)
Default : Yes
Forced : No
Color range : Limited
Color primaries : BT.2020
Transfer characteristics : PQ
Matrix coefficients : BT.2020 non-constant
Mastering display color primaries : Display P3
Mastering display luminance : min: 0.0001 cd/m2, max: 1000 cd/m2
Maximum Content Light Level : 264 cd/m2
Maximum Frame-Average Light Level : 114 cd/m2

Audio
ID : 2
Format : E-AC-3
Format/Info : Enhanced AC-3
Commercial name : Dolby Digital Plus
Codec ID : A_EAC3
Duration : 1 h 43 min
Bit rate mode : Constant
Bit rate : 640 kb/s
Channel(s) : 6 channels
Channel layout : L R C LFE Ls Rs
Sampling rate : 48.0 kHz
Frame rate : 31.250 FPS (1536 SPF)
Compression mode : Lossy
Stream size : 474 MiB (4%)
Title : English
Language : English
Service kind : Complete Main
Default : No
Forced : No

Text #1
ID : 3
Format : UTF-8
Codec ID : S_TEXT/UTF8
Codec ID/Info : UTF-8 Plain Text
Duration : 1 h 42 min
Bit rate : 29 b/s
Count of elements : 643
Stream size : 22.2 KiB (0%)
Title : Danish
Language : Danish
Default : No
Forced : No

Text #2
ID : 4
Format : UTF-8
Codec ID : S_TEXT/UTF8
Codec ID/Info : UTF-8 Plain Text
Duration : 1 h 42 min
Bit rate : 27 b/s
Count of elements : 624
Stream size : 20.5 KiB (0%)
Title : Dutch
Language : Dutch
Default : No
Forced : No

Text #3
ID : 5
Format : UTF-8
Codec ID : S_TEXT/UTF8
Codec ID/Info : UTF-8 Plain Text
Duration : 1 h 36 min
Bit rate : 42 b/s
Count of elements : 1020
Stream size : 30.2 KiB (0%)
Title : English [SDH]
Language : English
Default : No
Forced : No

Text #4
ID : 6
Format : UTF-8
Codec ID : S_TEXT/UTF8
Codec ID/Info : UTF-8 Plain Text
Duration : 1 h 36 min
Bit rate : 42 b/s
Count of elements : 1012
Stream size : 30.0 KiB (0%)
Title : English
Language : English
Default : No
Forced : No

Text #5
ID : 7
Format : UTF-8
Codec ID : S_TEXT/UTF8
Codec ID/Info : UTF-8 Plain Text
Duration : 1 h 42 min
Bit rate : 29 b/s
Count of elements : 665
Stream size : 22.3 KiB (0%)
Title : Finnish
Language : Finnish
Default : No
Forced : No

Text #6
ID : 8
Format : UTF-8
Codec ID : S_TEXT/UTF8
Codec ID/Info : UTF-8 Plain Text
Duration : 1 h 42 min
Bit rate : 30 b/s
Count of elements : 654
Stream size : 22.7 KiB (0%)
Title : French
Language : French
Default : No
Forced : No

Text #7
ID : 9
Format : UTF-8
Codec ID : S_TEXT/UTF8
Codec ID/Info : UTF-8 Plain Text
Duration : 1 h 42 min
Bit rate : 30 b/s
Count of elements : 657
Stream size : 23.1 KiB (0%)
Title : Italian
Language : Italian
Default : No
Forced : No

Text #8
ID : 10
Format : UTF-8
Codec ID : S_TEXT/UTF8
Codec ID/Info : UTF-8 Plain Text
Duration : 1 h 42 min
Bit rate : 30 b/s
Count of elements : 647
Stream size : 22.7 KiB (0%)
Title : Norwegian (Bokmål)
Language : Norwegian Bokmal
Default : No
Forced : No

Text #9
ID : 11
Format : UTF-8
Codec ID : S_TEXT/UTF8
Codec ID/Info : UTF-8 Plain Text
Duration : 1 h 42 min
Bit rate : 31 b/s
Count of elements : 647
Stream size : 23.9 KiB (0%)
Title : Swedish
Language : Swedish
Default : No
Forced : No

Menu
00:00:00.000 : en:Amazon Original
00:00:06.000 : en:Studio Logo
00:00:33.000 : en:Scene 3
00:01:28.000 : en:Scene 4
00:03:33.000 : en:Scene 5
00:08:39.000 : en:Scene 6
00:10:41.000 : en:Scene 7
00:15:12.000 : en:Scene 8
00:21:12.000 : en:Scene 9
00:22:47.000 : en:Scene 10
00:26:26.000 : en:Scene 11
00:28:26.000 : en:Scene 12
00:30:25.000 : en:Scene 13
00:33:31.000 : en:Scene 14
00:44:02.000 : en:Scene 15
00:47:44.000 : en:Scene 16
00:49:44.000 : en:Scene 17
00:55:08.000 : en:Scene 18
00:58:06.000 : en:Scene 19
01:05:49.000 : en:Scene 20
01:12:15.000 : en:Scene 21
01:21:02.000 : en:Scene 22
01:22:36.000 : en:Scene 23
01:26:48.000 : en:Scene 24
01:30:58.000 : en:Scene 25
01:36:42.000 : en:Scene 26
01:37:43.000 : en:End Credits


资源速度为零或资源敏感被和谐时,推荐使用qBittorrent等下载软件,有条件的推荐115更好的下载软件!

游客,如果您要查看本帖隐藏内容请回复





上一篇:正义的慈悲(内封简繁字幕) / Just Mercy (2019) 4K高清下载
下一篇:我们是谁:美国种族主义编年史 (2021) 4K高清版本下载
回复

使用道具 举报

46

主题

1439

帖子

4145

积分

4K家园VIP

Rank: 9Rank: 9Rank: 9

积分
4145
发表于 2022-4-1 12:10:25 | 显示全部楼层
为保住菊花,这个一定得回复!
回复 支持 反对

使用道具 举报

0

主题

8229

帖子

1万

积分

4K家园VIP

Rank: 9Rank: 9Rank: 9

积分
18818
发表于 2022-4-1 12:37:25 | 显示全部楼层
太好啦&萬分感謝版主的無私發佈分享%
回复 支持 反对

使用道具 举报

0

主题

15

帖子

1302

积分

4K家园VIP

Rank: 9Rank: 9Rank: 9

积分
1302
发表于 2022-4-1 13:34:37 | 显示全部楼层
萬分感謝版主的無私發佈分享
回复 支持 反对

使用道具 举报

0

主题

74

帖子

330

积分

新手上路

Rank: 1

积分
330
发表于 2022-4-1 15:36:55 | 显示全部楼层
一定得回复
回复 支持 反对

使用道具 举报

0

主题

22

帖子

1116

积分

注册会员

Rank: 2

积分
1116
发表于 2022-4-1 16:45:31 | 显示全部楼层
非常好的资源,谢谢分享!
回复 支持 反对

使用道具 举报

2

主题

1404

帖子

4072

积分

4K家园VIP

Rank: 9Rank: 9Rank: 9

积分
4072
发表于 2022-4-3 14:46:14 | 显示全部楼层
为保住菊花,这个一定得回复!
回复 支持 反对

使用道具 举报

0

主题

1

帖子

10

积分

新手上路

Rank: 1

积分
10
发表于 2022-4-3 21:26:11 | 显示全部楼层
楼主威武!
回复

使用道具 举报

0

主题

3

帖子

24

积分

新手上路

Rank: 1

积分
24
发表于 2022-4-5 20:12:37 | 显示全部楼层
谢谢分享!!!!!
回复

使用道具 举报

3

主题

1742

帖子

4766

积分

4K家园VIP

Rank: 9Rank: 9Rank: 9

积分
4766
发表于 2022-4-7 02:17:37 来自手机 | 显示全部楼层
没人回帖。。。我来个吧
回复 支持 反对

使用道具 举报

您需要登录后才可以回帖 登录 | 立即注册

本版积分规则

精彩图文
Archiver|手机版|TAG|Sitemap|新帖|专题|联系我们:邮箱: 4kjia.com@gmail.com   

4k家园   ©2019