[4K电影] 我们是谁:美国种族主义编年史 (2021) 4K高清版本下载

[复制链接]

1733

主题

1866

帖子

1万

积分

超级版主

Rank: 8Rank: 8

积分
14095
 楼主| 发表于 2022-4-1 12:48:12 | 显示全部楼层 |阅读模式
QQ图片20220401124054_副本.png

◎译  名 我们是谁:美国种族主义编年史
◎片  名 Who We Are: A Chronicle of Racism in America
◎年  代 2021
◎产  地 美国
◎类  别 纪录片
◎语  言 英语
◎上映日期 2021-03(西南偏南电影节)
◎IMDb评分  6.3/10 from 325 users
◎IMDb链接  https://www.imdb.com/title/tt14030682/
◎豆瓣评分 0/10 from 0 users
◎豆瓣链接 https://movie.douban.com/subject/35371293/
◎导  演 艾米莉·昆斯特勒 / 莎拉·昆斯特勒
◎编  剧 杰弗里·罗宾逊


◎简  介

       美国公民自由联盟(ACLU)律师杰弗里·罗宾逊(Jeffery Robinson)关于美国反黑人种族主义历史的惊心动魄的演讲,与档案录像、采访和罗宾逊的故事交织在一起,探索白人至上的遗产,以及我们克服它的集体责任。
Video
ID : 1
Format : HEVC
Format/Info : High Efficiency Video Coding
Format profile : Main 10@L5@High
Codec ID : V_MPEGH/ISO/HEVC
Duration : 1 h 57 min
Bit rate : 20.4 Mb/s
Width : 3 832 pixels
Height : 2 152 pixels
Display aspect ratio : 16:9
Frame rate mode : Constant
Frame rate : 23.976 (24000/1001) FPS
Color space : YUV
Chroma subsampling : 4:2:0
Bit depth : 10 bits
Bits/(Pixel*Frame) : 0.103
Stream size : 16.7 GiB (98%)
Default : Yes
Forced : No
Color range : Limited
Color primaries : BT.709
Transfer characteristics : BT.709
Matrix coefficients : BT.709

Audio
ID : 2
Format : AC-3
Format/Info : Audio Coding 3
Commercial name : Dolby Digital
Codec ID : A_AC3
Duration : 1 h 57 min
Bit rate mode : Constant
Bit rate : 384 kb/s
Channel(s) : 6 channels
Channel layout : L R C LFE Ls Rs
Sampling rate : 48.0 kHz
Frame rate : 31.250 FPS (1536 SPF)
Compression mode : Lossy
Stream size : 322 MiB (2%)
Language : English
Service kind : Complete Main
Default : Yes
Forced : No

Text #1
ID : 3
Format : UTF-8
Codec ID : S_TEXT/UTF8
Codec ID/Info : UTF-8 Plain Text
Duration : 1 h 56 min
Bit rate : 93 b/s
Count of elements : 1764
Stream size : 79.8 KiB (0%)
Title : English British
Language : English
Default : No
Forced : No

Text #2
ID : 4
Format : UTF-8
Codec ID : S_TEXT/UTF8
Codec ID/Info : UTF-8 Plain Text
Duration : 1 h 56 min
Bit rate : 96 b/s
Count of elements : 2054
Stream size : 81.8 KiB (0%)
Title : English CC
Language : English
Default : No
Forced : No

Text #3
ID : 5
Format : UTF-8
Codec ID : S_TEXT/UTF8
Codec ID/Info : UTF-8 Plain Text
Duration : 1 h 57 min
Bit rate : 86 b/s
Count of elements : 1840
Stream size : 74.0 KiB (0%)
Title : French European
Language : French
Default : No
Forced : No

Text #4
ID : 6
Format : UTF-8
Codec ID : S_TEXT/UTF8
Codec ID/Info : UTF-8 Plain Text
Duration : 1 h 57 min
Bit rate : 95 b/s
Count of elements : 1841
Stream size : 81.6 KiB (0%)
Title : Portuguese Brazilian
Language : Portuguese
Default : No
Forced : No

Text #5
ID : 7
Format : UTF-8
Codec ID : S_TEXT/UTF8
Codec ID/Info : UTF-8 Plain Text
Duration : 1 h 57 min
Bit rate : 153 b/s
Count of elements : 1883
Stream size : 132 KiB (0%)
Title : Ukrainian
Language : Ukrainian
Default : No
Forced : No

Menu
00:00:00.000 : en:Chapter 01
00:06:58.501 : en:Chapter 02
00:14:46.720 : en:Chapter 03
00:22:01.112 : en:Chapter 04
00:28:48.687 : en:Chapter 05
00:33:47.527 : en:Chapter 06
00:41:54.556 : en:Chapter 07
00:50:27.027 : en:Chapter 08
00:57:43.338 : en:Chapter 09
01:05:06.448 : en:Chapter 10
01:14:32.931 : en:Chapter 11
01:21:07.283 : en:Chapter 12
01:29:44.092 : en:Chapter 13
01:36:07.475 : en:Chapter 14
01:42:47.459 : en:Chapter 15

资源速度为零或资源敏感被和谐时,推荐使用qBittorrent等下载软件,有条件的推荐115更好的下载软件!

下载地址:

游客,如果您要查看本帖隐藏内容请回复





上一篇:承包商 / The Contractor (2022) 4K高清版本下载
下一篇:月球陨落(附字幕)/ Moonfall (2022) 4K高清版本下载
回复

使用道具 举报

2

主题

1424

帖子

4110

积分

中级会员

Rank: 4

积分
4110
发表于 2022-4-1 12:48:16 | 显示全部楼层
无论是不是沙发都得回复下
回复 支持 反对

使用道具 举报

0

主题

8230

帖子

1万

积分

4K家园VIP

Rank: 9Rank: 9Rank: 9

积分
18830
发表于 2022-4-1 13:57:11 | 显示全部楼层
廣東龍門永遠馬到成功&萬分感謝版主的無私發佈分享%
回复 支持 反对

使用道具 举报

1

主题

1389

帖子

4003

积分

4K家园VIP

Rank: 9Rank: 9Rank: 9

积分
4003
发表于 2022-4-2 21:24:48 | 显示全部楼层
感谢楼主发帖,前排顶起
回复 支持 反对

使用道具 举报

1

主题

1354

帖子

4090

积分

4K家园VIP

Rank: 9Rank: 9Rank: 9

积分
4090
发表于 2022-4-3 09:34:03 | 显示全部楼层
LZ是天才,坚定完毕
回复 支持 反对

使用道具 举报

45

主题

1475

帖子

4273

积分

4K家园VIP

Rank: 9Rank: 9Rank: 9

积分
4273
发表于 2022-4-4 16:48:13 来自手机 | 显示全部楼层
啊啊啊啊啊啊啊啊啊啊啊
回复 支持 反对

使用道具 举报

0

主题

1339

帖子

4019

积分

4K家园VIP

Rank: 9Rank: 9Rank: 9

积分
4019
发表于 2022-4-7 02:11:10 | 显示全部楼层
1v1飘过
回复 支持 反对

使用道具 举报

您需要登录后才可以回帖 登录 | 立即注册

本版积分规则

精彩图文
Archiver|手机版|TAG|Sitemap|新帖|专题|联系我们:邮箱: 4kjia.com@gmail.com   

4k家园   ©2019