[4K电影] 内特的梦想剧院(内封中字) (2022) 4K高清版本下载

[复制链接]

1735

主题

1868

帖子

1万

积分

超级版主

Rank: 8Rank: 8

积分
14105
 楼主| 发表于 2022-4-1 20:40:12 | 显示全部楼层 |阅读模式
QQ图片20220401203326_副本.png

◎译  名 内特的梦想剧院 / 比以往任何时候都好
◎片  名 Better Nate Than Ever
◎年  代 2022
◎产  地 美国
◎类  别 剧情 / 喜剧 / 歌舞
◎语  言 英语
◎上映日期 2022-04-01(美国网络)
◎IMDb评分  4.4/10 from 10 users
◎IMDb链接  https://www.imdb.com/title/tt14696284/
◎豆瓣评分 0/10 from 0 users
◎豆瓣链接 https://movie.douban.com/subject/35661282/
◎导  演 蒂姆·费德勒尔 Tim Federle
◎编  剧 蒂姆·费德勒尔 Tim Federle
◎演  员 丽莎·库卓 Lisa Kudrow
       诺尔贝特·里奥·布茨 Norbert Leo Butz
       约书亚·巴塞特 Joshua Bassett
       Michelle Federer Michelle Federer
       苏珊·萨瓦 Suzanne Savoy
       阿里娅·布鲁克斯 Aria Brooks
       约翰·麦克金蒂 John P. McGinty


◎简  介


  13岁的内特·福斯特(Nate Foster)是一个不受欢迎的中西部孩子,他幻想着成为百老汇音乐巨星。然而,与此同时,内特甚至无法在中学的戏剧作品中扮演一个像样的角色,在合唱团中扮演一棵树,而不是他渴望的主角。然而,当他和他最好的朋友利比策划了一次大胆的纽约之旅。。。
Video
ID : 1
Format : HEVC
Format/Info : High Efficiency Video Coding
Format profile : Main 10@L5@High
HDR format : SMPTE ST 2086, HDR10 compatible
Codec ID : V_MPEGH/ISO/HEVC
Duration : 1 h 31 min
Bit rate : 16.1 Mb/s
Width : 3 840 pixels
Height : 2 160 pixels
Display aspect ratio : 16:9
Frame rate mode : Constant
Frame rate : 24.000 FPS
Color space : YUV
Chroma subsampling : 4:2:0
Bit depth : 10 bits
Bits/(Pixel*Frame) : 0.081
Stream size : 10.3 GiB (95%)
Default : Yes
Forced : No
Color range : Limited
Color primaries : BT.2020
Transfer characteristics : PQ
Matrix coefficients : BT.2020 non-constant
Mastering display color primaries : Display P3
Mastering display luminance : min: 0.0000 cd/m2, max: 1000 cd/m2

Audio
ID : 2
Format : E-AC-3 JOC
Format/Info : Enhanced AC-3 with Joint Object Coding
Commercial name : Dolby Digital Plus with Dolby Atmos
Codec ID : A_EAC3
Duration : 1 h 31 min
Bit rate mode : Constant
Bit rate : 768 kb/s
Channel(s) : 6 channels
Channel layout : L R C LFE Ls Rs
Sampling rate : 48.0 kHz
Frame rate : 31.250 FPS (1536 SPF)
Compression mode : Lossy
Stream size : 503 MiB (5%)
Language : English
Service kind : Complete Main
Default : Yes
Forced : No
Complexity index : 16
Number of dynamic objects : 15
Bed channel count : 1 channel
Bed channel configuration : LFE

Text #1
ID : 3
Format : UTF-8
Codec ID : S_TEXT/UTF8
Codec ID/Info : UTF-8 Plain Text
Duration : 1 h 30 min
Bit rate : 58 b/s
Count of elements : 1306
Stream size : 38.7 KiB (0%)
Title : 中文 (香港)
Language : 中文
Default : No
Forced : No


Text #2
ID : 4
Format : UTF-8
Codec ID : S_TEXT/UTF8
Codec ID/Info : UTF-8 Plain Text
Duration : 1 h 30 min
Bit rate : 59 b/s
Count of elements : 1305
Stream size : 39.6 KiB (0%)
Title : 中文 (简体)
Language : 中文
Default : No
Forced : No


Text #3
ID : 5
Format : UTF-8
Codec ID : S_TEXT/UTF8
Codec ID/Info : UTF-8 Plain Text
Duration : 1 h 30 min
Bit rate : 56 b/s
Count of elements : 1306
Stream size : 37.8 KiB (0%)
Title : 中文 (繁体)
Language : 中文
Default : No
Forced : No

Text #4
ID : 6
Format : UTF-8
Codec ID : S_TEXT/UTF8
Codec ID/Info : UTF-8 Plain Text
Duration : 1 h 30 min
Bit rate : 58 b/s
Count of elements : 954
Stream size : 38.9 KiB (0%)
Title : Dansk
Language : Danish
Default : No
Forced : No

Text #5
ID : 7
Format : UTF-8
Codec ID : S_TEXT/UTF8
Codec ID/Info : UTF-8 Plain Text
Duration : 1 h 30 min
Bit rate : 53 b/s
Count of elements : 1073
Stream size : 35.5 KiB (0%)
Title : Deutsch
Language : German
Default : No
Forced : No

Text #6
ID : 8
Format : UTF-8
Codec ID : S_TEXT/UTF8
Codec ID/Info : UTF-8 Plain Text
Duration : 1 h 27 min
Bit rate : 71 b/s
Count of elements : 1392
Stream size : 46.2 KiB (0%)
Title : English [CC]
Language : English
Default : No
Forced : No

Text #7
ID : 9
Format : UTF-8
Codec ID : S_TEXT/UTF8
Codec ID/Info : UTF-8 Plain Text
Duration : 1 h 30 min
Bit rate : 62 b/s
Count of elements : 1291
Stream size : 41.7 KiB (0%)
Title : Espa?ol
Language : Spanish
Default : No
Forced : No

Text #8
ID : 10
Format : UTF-8
Codec ID : S_TEXT/UTF8
Codec ID/Info : UTF-8 Plain Text
Duration : 1 h 30 min
Bit rate : 65 b/s
Count of elements : 1296
Stream size : 43.7 KiB (0%)
Title : Espa?ol (Latinoamericano)
Language : Spanish
Default : No
Forced : No

Text #9
ID : 11
Format : UTF-8
Codec ID : S_TEXT/UTF8
Codec ID/Info : UTF-8 Plain Text
Duration : 1 h 30 min
Bit rate : 65 b/s
Count of elements : 1255
Stream size : 43.3 KiB (0%)
Title : Fran?ais
Language : French
Default : No
Forced : No

Text #10
ID : 12
Format : UTF-8
Codec ID : S_TEXT/UTF8
Codec ID/Info : UTF-8 Plain Text
Duration : 1 h 30 min
Bit rate : 66 b/s
Count of elements : 1294
Stream size : 44.1 KiB (0%)
Title : Italiano
Language : Italian
Default : No
Forced : No

Text #11
ID : 13
Format : UTF-8
Codec ID : S_TEXT/UTF8
Codec ID/Info : UTF-8 Plain Text
Duration : 1 h 30 min
Bit rate : 54 b/s
Count of elements : 1247
Stream size : 36.2 KiB (0%)
Title : Japanese
Language : Japanese
Default : No
Forced : No

Text #12
ID : 14
Format : UTF-8
Codec ID : S_TEXT/UTF8
Codec ID/Info : UTF-8 Plain Text
Duration : 1 h 30 min
Bit rate : 77 b/s
Count of elements : 1297
Stream size : 51.8 KiB (0%)
Title : Korean
Language : Korean
Default : No
Forced : No

Text #13
ID : 15
Format : UTF-8
Codec ID : S_TEXT/UTF8
Codec ID/Info : UTF-8 Plain Text
Duration : 1 h 30 min
Bit rate : 55 b/s
Count of elements : 1088
Stream size : 37.0 KiB (0%)
Title : Nederlands
Language : Dutch
Default : No
Forced : No

Text #14
ID : 16
Format : UTF-8
Codec ID : S_TEXT/UTF8
Codec ID/Info : UTF-8 Plain Text
Duration : 1 h 30 min
Bit rate : 59 b/s
Count of elements : 1291
Stream size : 39.7 KiB (0%)
Title : Norsk
Language : Norwegian
Default : No
Forced : No

Text #15
ID : 17
Format : UTF-8
Codec ID : S_TEXT/UTF8
Codec ID/Info : UTF-8 Plain Text
Duration : 1 h 30 min
Bit rate : 63 b/s
Count of elements : 1291
Stream size : 42.4 KiB (0%)
Title : Português
Language : Portuguese
Default : No
Forced : No

Text #16
ID : 18
Format : UTF-8
Codec ID : S_TEXT/UTF8
Codec ID/Info : UTF-8 Plain Text
Duration : 1 h 30 min
Bit rate : 67 b/s
Count of elements : 1295
Stream size : 44.8 KiB (0%)
Title : Português (Brasil)
Language : Portuguese
Default : No
Forced : No

Text #17
ID : 19
Format : UTF-8
Codec ID : S_TEXT/UTF8
Codec ID/Info : UTF-8 Plain Text
Duration : 1 h 30 min
Bit rate : 55 b/s
Count of elements : 1269
Stream size : 37.0 KiB (0%)
Title : Suomi
Language : Finnish
Default : No
Forced : No

Text #18
ID : 20
Format : UTF-8
Codec ID : S_TEXT/UTF8
Codec ID/Info : UTF-8 Plain Text
Duration : 1 h 30 min
Bit rate : 60 b/s
Count of elements : 1263
Stream size : 40.0 KiB (0%)
Title : Svenska
Language : Swedish
Default : No
Forced : No
资源速度为零或资源敏感被和谐时,推荐使用qBittorrent等下载软件,有条件的推荐115更好的下载软件!

下载地址:



游客,如果您要查看本帖隐藏内容请回复

游客,如果您要查看本帖隐藏内容请回复

游客,如果您要查看本帖隐藏内容请回复




上一篇:月球陨落(附字幕)/ Moonfall (2022) 4K高清版本下载
下一篇:回归之路(内封简繁中字)/The Way Back (2020) 4K高清版本下载
回复

使用道具 举报

51

主题

1574

帖子

4538

积分

4K家园VIP

Rank: 9Rank: 9Rank: 9

积分
4538
发表于 2022-4-1 20:40:19 | 显示全部楼层
看起来好像不错的样子
回复 支持 反对

使用道具 举报

67

主题

1544

帖子

4450

积分

4K家园VIP

Rank: 9Rank: 9Rank: 9

积分
4450
发表于 2022-4-1 21:25:27 | 显示全部楼层
站位支持
回复 支持 反对

使用道具 举报

2

主题

1411

帖子

4255

积分

4K家园VIP

Rank: 9Rank: 9Rank: 9

积分
4255
发表于 2022-4-2 04:42:30 | 显示全部楼层
正好需要啊
回复 支持 反对

使用道具 举报

41

主题

1526

帖子

4410

积分

4K家园VIP

Rank: 9Rank: 9Rank: 9

积分
4410
发表于 2022-4-2 10:53:32 | 显示全部楼层
顶起顶起顶起
回复 支持 反对

使用道具 举报

0

主题

8230

帖子

1万

积分

4K家园VIP

Rank: 9Rank: 9Rank: 9

积分
18830
发表于 2022-4-2 11:54:45 | 显示全部楼层
太好啦&萬分感謝版主的無私發佈分享%
回复 支持 反对

使用道具 举报

1

主题

1387

帖子

3991

积分

4K家园VIP

Rank: 9Rank: 9Rank: 9

积分
3991
发表于 2022-4-2 12:31:43 | 显示全部楼层
体验下4K版的
回复 支持 反对

使用道具 举报

0

主题

7

帖子

196

积分

新手上路

Rank: 1

积分
196
发表于 2022-4-3 02:45:37 | 显示全部楼层
okokokokokokok
回复 支持 反对

使用道具 举报

0

主题

4

帖子

19

积分

新手上路

Rank: 1

积分
19
发表于 2022-4-3 12:10:55 | 显示全部楼层
888888888
回复

使用道具 举报

您需要登录后才可以回帖 登录 | 立即注册

本版积分规则

精彩图文
Archiver|手机版|TAG|Sitemap|新帖|专题|联系我们:邮箱: 4kjia.com@gmail.com   

4k家园   ©2019