[4K电影] 回归之路(内封简繁中字)/The Way Back (2020) 4K高清版本下载

[复制链接]

1723

主题

1856

帖子

1万

积分

超级版主

Rank: 8Rank: 8

积分
14024
 楼主| 发表于 2022-4-2 22:47:52 | 显示全部楼层 |阅读模式
QQ图片20220402223847_副本.png

◎译  名 回归之路 / 归来之路 / 归途 / 托兰斯教练 / Torrance / The Has-Been
◎片  名 The Way Back
◎年  代 2020
◎产  地 美国
◎类  别 剧情 / 运动
◎语  言 英语
◎上映日期 2020-03-06(美国网络)
◎IMDb评分  6.7/10 from 43766 users
◎IMDb链接  https://www.imdb.com/title/tt8544498/
◎豆瓣评分 6.7/10 from 6066 users
◎豆瓣链接 https://movie.douban.com/subject/30345227/
◎片  长 108分钟
◎导  演 加文·欧康诺 Gavin O'Connor
◎编  剧 布拉德·英格尔斯比 Brad Ingelsby / 加文·欧康诺 Gavin O'Connor
◎演  员 本·阿弗莱克 Ben Affleck
       詹妮娜·加万卡 Janina Gavankar
       麦可拉·沃金丝 Michaela Watkins
       瑞秋·卡帕尼 Rachael Carpani
       艾尔·马德里加尔 Al Madrigal
       海耶斯·麦克阿瑟 Hayes MacArthur
       阿夫拉姆·D·于斯特 Da'Vinchi
       泰勒·奥马利 Tyler O'Malley
       马修·格拉夫 Matthew Glave
       托德·斯塔什维克 Todd Stashwick
       玛琳娜·福特 Marlene Forte
       英卡·基特 Inka Kyt?
       格林·特鲁曼 Glynn Turman
       梅尔文·格雷格 Melvin Gregg
       TK·卡特 T.K. Carter
       卢卡斯·盖奇 Lukas Gage
       杰雷米·拉特福德 Jeremy Ratchford
       小索尔·韦雷斯 Sal Velez Jr.
       克里斯·布鲁诺 Chris Bruno
       克里斯汀·霍恩 Christine Horn
       布兰登·威尔逊 Brandon Wilson
       艾德琳·冈野 Edelyn Okano
       尼科·戴维 Nico David
       汤姆·阿齐迪肯 Tom Archdeacon
       杰·阿布多 Jay Abdo
       查德·芒廷 Chad Mountain
       谢伊·朗德特里 Shay Roundtree
       曼尼·斯特里茨 Manny Streetz
       桑蒂尔·亚历克西斯·瓦奎兹 Shantiel Alexis Vazquez
       小阿曼多·杜邦 Armando DuBon Jr.
       丹·格伦伯格 Dan Gruenberg
       布莱恩·纳什 Bryan Nash
       威尔·罗普 Will Ropp
       本·阿弗莱克 Ben Affleck
       罗伯·西蒙森 Rob Simonsen
       辛迪·埃文斯 Cindy Evans


◎简  介


  一个曾经的篮球明星在与酒瘾作斗争时失去了妻子与家庭,为了能够找回自我选择回到母校为一支高中篮球队做教练,同时也要继续防止自己再次被酒瘾控制。

◎获奖情况 (共1项)
  第26届美国评论家选择电影奖 (2021)
  最佳男主角(提名)
   └──本·阿弗莱克 (id:1054417)


Video
ID : 1
Format : HEVC
Format/Info : High Efficiency Video Coding
Format profile : Main 10@L5@High
HDR format : Dolby Vision, Version 1.0, dvhe.05.06, BL+RPU
Codec ID : V_MPEGH/ISO/HEVC
Duration : 1 h 48 min
Bit rate : 24.4 Mb/s
Width : 3 836 pixels
Height : 1 600 pixels
Display aspect ratio : 2.40:1
Original display aspect ratio : 2.40:1
Frame rate mode : Constant
Frame rate : 23.976 (24000/1001/189150) FPS
Color space : YUV
Chroma subsampling : 4:2:0
Bit depth : 10 bits
Bits/(Pixel*Frame) : 0.166
Stream size : 18.5 GiB (73%)
Language : English
Default : Yes
Forced : No

Audio #1
ID : 2
Format : MLP FBA 16-ch
Format/Info : Meridian Lossless Packing FBA with 16-channel presentation
Commercial name : Dolby TrueHD with Dolby Atmos
Codec ID : A_TRUEHD
Duration : 1 h 48 min
Bit rate mode : Variable
Bit rate : 3 414 kb/s
Maximum bit rate : 5 022 kb/s
Channel(s) : 8 channels
Channel layout : L R C LFE Ls Rs Lb Rb
Sampling rate : 48.0 kHz
Frame rate : 1 200.000 FPS (40 SPF)
Compression mode : Lossless
Stream size : 2.59 GiB (10%)
Title : TrueHD 7.1 Atmos
Language : English
Default : Yes
Forced : No
Number of dynamic objects : 15
Bed channel count : 1 channel
Bed channel configuration : LFE

Audio #2
ID : 3
Format : DTS XLL
Format/Info : Digital Theater Systems
Commercial name : DTS-HD Master Audio
Codec ID : A_DTS
Duration : 1 h 48 min
Bit rate mode : Variable
Bit rate : 4 173 kb/s
Channel(s) : 8 channels
Channel layout : C L R LFE Lb Rb Lss Rss
Sampling rate : 48.0 kHz
Frame rate : 93.750 FPS (512 SPF)
Bit depth : 24 bits
Compression mode : Lossless
Delay relative to video : 7 ms
Stream size : 3.16 GiB (12%)
Title : DTS-HD MA 7.1
Language : English
Default : No
Forced : No

Audio #3
ID : 4
Format : AC-3
Format/Info : Audio Coding 3
Commercial name : Dolby Digital
Codec ID : A_AC3
Duration : 1 h 48 min
Bit rate mode : Constant
Bit rate : 640 kb/s
Channel(s) : 6 channels
Channel layout : L R C LFE Ls Rs
Sampling rate : 48.0 kHz
Frame rate : 31.250 FPS (1536 SPF)
Compression mode : Lossy
Delay relative to video : 28 ms
Stream size : 495 MiB (2%)
Title : DD 5.1
Language : English
Service kind : Complete Main
Default : No
Forced : No

Audio #4
ID : 5
Format : E-AC-3 JOC
Format/Info : Enhanced AC-3 with Joint Object Coding
Commercial name : Dolby Digital Plus with Dolby Atmos
Codec ID : A_EAC3
Duration : 1 h 48 min
Bit rate mode : Constant
Bit rate : 768 kb/s
Channel(s) : 6 channels
Channel layout : L R C LFE Ls Rs
Sampling rate : 48.0 kHz
Frame rate : 31.250 FPS (1536 SPF)
Compression mode : Lossy
Stream size : 595 MiB (2%)
Title : DDP 5.1 Atmos
Language : English
Service kind : Complete Main
Default : No
Forced : No
Complexity index : 16
Number of dynamic objects : 15
Bed channel count : 1 channel
Bed channel configuration : LFE

Text #1
ID : 6
Format : UTF-8
Codec ID : S_TEXT/UTF8
Codec ID/Info : UTF-8 Plain Text
Duration : 1 h 40 min
Bit rate : 102 b/s
Count of elements : 1855
Stream size : 75.3 KiB (0%)
Title : English
Language : English
Default : Yes
Forced : No

Text #2
ID : 7
Format : UTF-8
Codec ID : S_TEXT/UTF8
Codec ID/Info : UTF-8 Plain Text
Duration : 1 h 41 min
Bit rate : 101 b/s
Count of elements : 1541
Stream size : 75.9 KiB (0%)
Title : Arabic
Language : Arabic
Default : No
Forced : No

Text #3
ID : 8
Format : UTF-8
Codec ID : S_TEXT/UTF8
Codec ID/Info : UTF-8 Plain Text
Duration : 1 h 46 min
Bit rate : 81 b/s
Count of elements : 1531
Stream size : 63.3 KiB (0%)
Title : Bulgarian
Language : Bulgarian
Default : No
Forced : No

Text #4
ID : 9
Format : UTF-8
Codec ID : S_TEXT/UTF8
Codec ID/Info : UTF-8 Plain Text
Duration : 1 h 46 min
Bit rate : 54 b/s
Count of elements : 1557
Stream size : 42.9 KiB (0%)
Title : 中文(简体)
Language : 中文
Default : No
Forced : No

Text #5
ID : 10
Format : UTF-8
Codec ID : S_TEXT/UTF8
Codec ID/Info : UTF-8 Plain Text
Duration : 1 h 40 min
Bit rate : 52 b/s
Count of elements : 1527
Stream size : 38.8 KiB (0%)
Title : 中文(繁体)
Language : 中文
Default : No
Forced : No

Text #6
ID : 11
Format : UTF-8
Codec ID : S_TEXT/UTF8
Codec ID/Info : UTF-8 Plain Text
Duration : 1 h 46 min
Bit rate : 55 b/s
Count of elements : 1555
Stream size : 43.0 KiB (0%)
Title : 中文(粤语)
Language : 中文
Default : No
Forced : No


Text #7
ID : 12
Format : UTF-8
Codec ID : S_TEXT/UTF8
Codec ID/Info : UTF-8 Plain Text
Duration : 1 h 45 min
Bit rate : 60 b/s
Count of elements : 1530
Stream size : 46.6 KiB (0%)
Title : Czech
Language : Czech
Default : No
Forced : No

Text #8
ID : 13
Format : UTF-8
Codec ID : S_TEXT/UTF8
Codec ID/Info : UTF-8 Plain Text
Duration : 1 h 45 min
Bit rate : 58 b/s
Count of elements : 1526
Stream size : 45.0 KiB (0%)
Title : Danish
Language : Danish
Default : No
Forced : No

Text #9
ID : 14
Format : UTF-8
Codec ID : S_TEXT/UTF8
Codec ID/Info : UTF-8 Plain Text
Duration : 1 h 45 min
Bit rate : 55 b/s
Count of elements : 1504
Stream size : 42.9 KiB (0%)
Title : Dutch
Language : Dutch
Default : No
Forced : No

Text #10
ID : 15
Format : UTF-8
Codec ID : S_TEXT/UTF8
Codec ID/Info : UTF-8 Plain Text
Duration : 1 h 45 min
Bit rate : 58 b/s
Count of elements : 1538
Stream size : 45.1 KiB (0%)
Title : Estonian
Language : Estonian
Default : No
Forced : No

Text #11
ID : 16
Format : UTF-8
Codec ID : S_TEXT/UTF8
Codec ID/Info : UTF-8 Plain Text
Duration : 1 h 45 min
Bit rate : 59 b/s
Count of elements : 1533
Stream size : 45.5 KiB (0%)
Title : European Spanish
Language : Spanish
Default : No
Forced : No

Text #12
ID : 17
Format : UTF-8
Codec ID : S_TEXT/UTF8
Codec ID/Info : UTF-8 Plain Text
Duration : 1 h 45 min
Bit rate : 57 b/s
Count of elements : 1520
Stream size : 44.2 KiB (0%)
Title : Finnish
Language : Finnish
Default : No
Forced : No

Text #13
ID : 18
Format : UTF-8
Codec ID : S_TEXT/UTF8
Codec ID/Info : UTF-8 Plain Text
Duration : 1 h 45 min
Bit rate : 62 b/s
Count of elements : 1528
Stream size : 48.2 KiB (0%)
Title : French
Language : French
Default : No
Forced : No

Text #14
ID : 19
Format : UTF-8
Codec ID : S_TEXT/UTF8
Codec ID/Info : UTF-8 Plain Text
Duration : 1 h 41 min
Bit rate : 64 b/s
Count of elements : 1510
Stream size : 47.9 KiB (0%)
Title : German
Language : German
Default : No
Forced : No

Text #15
ID : 20
Format : UTF-8
Codec ID : S_TEXT/UTF8
Codec ID/Info : UTF-8 Plain Text
Duration : 1 h 45 min
Bit rate : 93 b/s
Count of elements : 1503
Stream size : 72.0 KiB (0%)
Title : Greek
Language : Greek
Default : No
Forced : No

Text #16
ID : 21
Format : UTF-8
Codec ID : S_TEXT/UTF8
Codec ID/Info : UTF-8 Plain Text
Duration : 1 h 46 min
Bit rate : 94 b/s
Count of elements : 1546
Stream size : 73.9 KiB (0%)
Title : Hebrew
Language : Hebrew
Default : No
Forced : No

Text #17
ID : 22
Format : UTF-8
Codec ID : S_TEXT/UTF8
Codec ID/Info : UTF-8 Plain Text
Duration : 1 h 45 min
Bit rate : 62 b/s
Count of elements : 1537
Stream size : 48.1 KiB (0%)
Title : Hungarian
Language : Hungarian
Default : No
Forced : No

Text #18
ID : 23
Format : UTF-8
Codec ID : S_TEXT/UTF8
Codec ID/Info : UTF-8 Plain Text
Duration : 1 h 46 min
Bit rate : 60 b/s
Count of elements : 1705
Stream size : 47.4 KiB (0%)
Title : Italian
Language : Italian
Default : No
Forced : No

Text #19
ID : 24
Format : UTF-8
Codec ID : S_TEXT/UTF8
Codec ID/Info : UTF-8 Plain Text
Duration : 1 h 39 min
Bit rate : 48 b/s
Count of elements : 1354
Stream size : 35.3 KiB (0%)
Title : Japanese
Language : Japanese
Default : No
Forced : No

Text #20
ID : 25
Format : UTF-8
Codec ID : S_TEXT/UTF8
Codec ID/Info : UTF-8 Plain Text
Duration : 1 h 46 min
Bit rate : 75 b/s
Count of elements : 1557
Stream size : 59.1 KiB (0%)
Title : Korean
Language : Korean
Default : No
Forced : No

Text #21
ID : 26
Format : UTF-8
Codec ID : S_TEXT/UTF8
Codec ID/Info : UTF-8 Plain Text
Duration : 1 h 45 min
Bit rate : 60 b/s
Count of elements : 1525
Stream size : 46.3 KiB (0%)
Title : Latin America Spanish
Language : Spanish
Default : No
Forced : No

Text #22
ID : 27
Format : UTF-8
Codec ID : S_TEXT/UTF8
Codec ID/Info : UTF-8 Plain Text
Duration : 1 h 45 min
Bit rate : 60 b/s
Count of elements : 1554
Stream size : 46.5 KiB (0%)
Title : Latvian
Language : Latvian
Default : No
Forced : No

Text #23
ID : 28
Format : UTF-8
Codec ID : S_TEXT/UTF8
Codec ID/Info : UTF-8 Plain Text
Duration : 1 h 45 min
Bit rate : 58 b/s
Count of elements : 1532
Stream size : 44.8 KiB (0%)
Title : Lithuanian
Language : Lithuanian
Default : No
Forced : No

Text #24
ID : 29
Format : UTF-8
Codec ID : S_TEXT/UTF8
Codec ID/Info : UTF-8 Plain Text
Duration : 1 h 45 min
Bit rate : 56 b/s
Count of elements : 1525
Stream size : 43.3 KiB (0%)
Title : Norwegian
Language : Norwegian
Default : No
Forced : No

Text #25
ID : 30
Format : UTF-8
Codec ID : S_TEXT/UTF8
Codec ID/Info : UTF-8 Plain Text
Duration : 1 h 45 min
Bit rate : 54 b/s
Count of elements : 1502
Stream size : 41.9 KiB (0%)
Title : Polish
Language : Polish
Default : No
Forced : No

Text #26
ID : 31
Format : UTF-8
Codec ID : S_TEXT/UTF8
Codec ID/Info : UTF-8 Plain Text
Duration : 1 h 45 min
Bit rate : 57 b/s
Count of elements : 1505
Stream size : 44.2 KiB (0%)
Title : Portuguese
Language : Portuguese
Default : No
Forced : No

Text #27
ID : 32
Format : UTF-8
Codec ID : S_TEXT/UTF8
Codec ID/Info : UTF-8 Plain Text
Duration : 1 h 45 min
Bit rate : 51 b/s
Count of elements : 1511
Stream size : 39.8 KiB (0%)
Title : Portuguese Brazilian
Language : Portuguese
Default : No
Forced : No

Text #28
ID : 33
Format : UTF-8
Codec ID : S_TEXT/UTF8
Codec ID/Info : UTF-8 Plain Text
Duration : 1 h 46 min
Bit rate : 94 b/s
Count of elements : 1546
Stream size : 73.7 KiB (0%)
Title : Russian
Language : Russian
Default : No
Forced : No

Text #29
ID : 34
Format : UTF-8
Codec ID : S_TEXT/UTF8
Codec ID/Info : UTF-8 Plain Text
Duration : 1 h 45 min
Bit rate : 51 b/s
Count of elements : 1170
Stream size : 39.6 KiB (0%)
Title : Slovenian
Language : Slovenian
Default : No
Forced : No

Text #30
ID : 35
Format : UTF-8
Codec ID : S_TEXT/UTF8
Codec ID/Info : UTF-8 Plain Text
Duration : 1 h 45 min
Bit rate : 60 b/s
Count of elements : 1512
Stream size : 46.6 KiB (0%)
Title : Swedish
Language : Swedish
Default : No
Forced : No

Text #31
ID : 36
Format : UTF-8
Codec ID : S_TEXT/UTF8
Codec ID/Info : UTF-8 Plain Text
Duration : 1 h 45 min
Bit rate : 148 b/s
Count of elements : 1556
Stream size : 114 KiB (0%)
Title : Thai
Language : Thai
Default : No
Forced : No

Text #32
ID : 37
Format : UTF-8
Codec ID : S_TEXT/UTF8
Codec ID/Info : UTF-8 Plain Text
Duration : 1 h 45 min
Bit rate : 61 b/s
Count of elements : 1550
Stream size : 47.5 KiB (0%)
Title : Turkish
Language : Turkish
Default : No
Forced : No

Text #33
ID : 38
Format : PGS
Muxing mode : zlib
Codec ID : S_HDMV/PGS
Codec ID/Info : Picture based subtitle format used on BDs/HD-DVDs
Duration : 1 h 40 min
Bit rate : 48.5 kb/s
Count of elements : 3422
Stream size : 34.8 MiB (0%)
Title : English-PGS
Language : English
Default : No
Forced : No

Text #34
ID : 39
Format : PGS
Muxing mode : zlib
Codec ID : S_HDMV/PGS
Codec ID/Info : Picture based subtitle format used on BDs/HD-DVDs
Duration : 1 h 45 min
Bit rate : 35.4 kb/s
Count of elements : 3052
Stream size : 26.6 MiB (0%)
Title : Danish-PGS
Language : Danish
Default : No
Forced : No

Text #35
ID : 40
Format : PGS
Muxing mode : zlib
Codec ID : S_HDMV/PGS
Codec ID/Info : Picture based subtitle format used on BDs/HD-DVDs
Duration : 1 h 45 min
Bit rate : 35.5 kb/s
Count of elements : 3040
Stream size : 26.7 MiB (0%)
Title : Finnish-PGS
Language : Finnish
Default : No
Forced : No

Text #36
ID : 41
Format : PGS
Muxing mode : zlib
Codec ID : S_HDMV/PGS
Codec ID/Info : Picture based subtitle format used on BDs/HD-DVDs
Duration : 1 h 45 min
Bit rate : 34.9 kb/s
Count of elements : 3006
Stream size : 26.3 MiB (0%)
Title : Greek-PGS
Language : Greek
Default : No
Forced : No

Text #37
ID : 42
Format : PGS
Muxing mode : zlib
Codec ID : S_HDMV/PGS
Codec ID/Info : Picture based subtitle format used on BDs/HD-DVDs
Duration : 1 h 46 min
Bit rate : 37.2 kb/s
Count of elements : 3412
Stream size : 28.3 MiB (0%)
Title : Italian-PGS
Language : Italian
Default : No
Forced : No

Text #38
ID : 43
Format : PGS
Muxing mode : zlib
Codec ID : S_HDMV/PGS
Codec ID/Info : Picture based subtitle format used on BDs/HD-DVDs
Duration : 1 h 45 min
Bit rate : 34.2 kb/s
Count of elements : 3050
Stream size : 25.7 MiB (0%)
Title : Norwegian-PGS
Language : Norwegian
Default : No
Forced : No

Text #39
ID : 44
Format : PGS
Muxing mode : zlib
Codec ID : S_HDMV/PGS
Codec ID/Info : Picture based subtitle format used on BDs/HD-DVDs
Duration : 1 h 45 min
Bit rate : 35.9 kb/s
Count of elements : 3024
Stream size : 27.0 MiB (0%)
Title : Swedish-PGS
Language : Swedish
Default : No
Forced : No

Menu
00:00:00.000 : en:Chapter 1
00:09:40.371 : en:Chapter 2
00:15:53.786 : en:Chapter 3
00:24:44.816 : en:Chapter 4
00:31:35.101 : en:Chapter 5
00:37:54.897 : en:Chapter 6
00:45:01.073 : en:Chapter 7
00:54:15.418 : en:Chapter 8
01:04:14.851 : en:Chapter 9
01:09:06.142 : en:Chapter 10
01:17:57.464 : en:Chapter 11
01:27:57.188 : en:Chapter 12
01:33:17.508 : en:Chapter 13
01:42:39.403 : en:Chapter 14


资源速度为零或资源敏感被和谐时,推荐使用qBittorrent等下载软件,有条件的推荐115更好的下载软件!

下载地址:
游客,如果您要查看本帖隐藏内容请回复

游客,如果您要查看本帖隐藏内容请回复

游客,如果您要查看本帖隐藏内容请回复

游客,如果您要查看本帖隐藏内容请回复





上一篇:内特的梦想剧院(内封中字) (2022) 4K高清版本下载
下一篇:性爱巴士 / Shortbus (2006) 4K高清版本下载
回复

使用道具 举报

1

主题

1357

帖子

3903

积分

4K家园VIP

Rank: 9Rank: 9Rank: 9

积分
3903
发表于 2022-4-2 22:47:57 来自手机 | 显示全部楼层
向楼主学习
回复 支持 反对

使用道具 举报

1

主题

1203

帖子

3631

积分

4K家园VIP

Rank: 9Rank: 9Rank: 9

积分
3631
发表于 2022-4-3 05:08:11 来自手机 | 显示全部楼层
支持下楼主,顶一个
回复 支持 反对

使用道具 举报

0

主题

8229

帖子

1万

积分

4K家园VIP

Rank: 9Rank: 9Rank: 9

积分
18818
发表于 2022-4-3 08:34:33 | 显示全部楼层
太好啦&萬分感謝版主的無私發佈分享%
回复 支持 反对

使用道具 举报

0

主题

344

帖子

2109

积分

注册会员

Rank: 2

积分
2109
发表于 2022-4-3 11:47:47 | 显示全部楼层
谢谢楼主分享
回复 支持 反对

使用道具 举报

1

主题

20

帖子

121

积分

新手上路

Rank: 1

积分
121
发表于 2022-4-3 21:54:45 | 显示全部楼层
非常不错
回复

使用道具 举报

0

主题

29

帖子

140

积分

新手上路

Rank: 1

积分
140
发表于 2022-4-3 21:56:59 | 显示全部楼层
好东西。。。。。。。。。。
回复

使用道具 举报

2

主题

1404

帖子

4072

积分

4K家园VIP

Rank: 9Rank: 9Rank: 9

积分
4072
发表于 2022-4-3 23:46:09 | 显示全部楼层
有4K版卡,下个看下
回复 支持 反对

使用道具 举报

3

主题

1293

帖子

3889

积分

4K家园VIP

Rank: 9Rank: 9Rank: 9

积分
3889
发表于 2022-4-4 19:40:54 | 显示全部楼层
边撸边过
回复 支持 反对

使用道具 举报

2

主题

1158

帖子

3492

积分

4K家园VIP

Rank: 9Rank: 9Rank: 9

积分
3492
发表于 2022-4-5 13:49:59 | 显示全部楼层
围观 围观 沙发在哪里!!!
回复 支持 反对

使用道具 举报

您需要登录后才可以回帖 登录 | 立即注册

本版积分规则

精彩图文
Archiver|手机版|TAG|Sitemap|新帖|专题|联系我们:邮箱: 4kjia.com@gmail.com   

4k家园   ©2019