[4K电影] 性爱巴士 / Shortbus (2006) 4K高清版本下载

  [复制链接]

1723

主题

1856

帖子

1万

积分

超级版主

Rank: 8Rank: 8

积分
14024
 楼主| 发表于 2022-4-3 20:15:40 | 显示全部楼层 |阅读模式
QQ图片20220403200605_副本.png

◎标  题 性爱巴士
◎译  名 短巴士
◎片  名 Shortbus
◎年  代 2006
◎产  地 美国
◎类  别 剧情 / 爱情 / 情色 / 同性
◎语  言 英语
◎上映日期 2006年10月20日
◎IMDb评分 6.4/10 from 32804 users
◎IMDb链接 https://www.imdb.com/title/tt0367027/
◎豆瓣评分 7.1/10 from 21018 users
◎豆瓣链接 https://movie.douban.com/subject/1828213/
◎片  长 分钟
◎导  演 约翰·卡梅隆·米切尔
◎编  剧 约翰·卡梅隆·米切尔
◎演  员 李素英
       保罗·道森
       林赛·比米什
       PJ DeBoy
       拉法埃尔·巴尔克
       杰·布拉南

◎简  介

  在繁华之都纽约,有一间名为短巴士(Short Bus)的俱乐部,肆意享受人生的青年男女云集于此,体验着彼此身体所带给自己的莫大快感。索非娅(Sook-Yin Lee 饰)是一名亚裔性临床专家,虽然和丈夫罗伯(Raphael Barker 饰)的婚姻生活无比幸福,但是她从未达到过高潮,为此索非娅苦恼不已;詹姆斯(Paul Dawson 饰)与杰米(PJ DeBoy 饰)是一对同性恋人,平淡的生活让詹姆斯渴望新鲜和刺激,这时,偷窥他们的加勒伯(Peter Stickles 饰)介入进来……
本片荣获2006年雅典国际电影节观众奖;2006年西班牙西洪(Gijón)国际电影节最佳艺术指导和最佳剧本奖;2007年独立精神奖最佳制片奖;2006年苏黎世电影节最佳影片奖。
Video
ID : 1
Format : HEVC
Format/Info : High Efficiency Video Coding
Format profile : Main 10@L5@High
Codec ID : V_MPEGH/ISO/HEVC
Duration : 1 h 41 min
Bit rate : 20.4 Mb/s
Width : 3 836 pixels
Height : 2 072 pixels
Display aspect ratio : 1.85:1
Frame rate mode : Constant
Frame rate : 23.976 FPS
Color space : YUV
Chroma subsampling : 4:2:0
Bit depth : 10 bits
Bits/(Pixel*Frame) : 0.107
Stream size : 14.5 GiB (90%)
Language : English
Default : Yes
Forced : No
Color range : Limited
Color primaries : BT.709
Transfer characteristics : BT.709
Matrix coefficients : BT.709

Audio #1
ID : 2
Format : DTS XLL
Format/Info : Digital Theater Systems
Commercial name : DTS-HD Master Audio
Codec ID : A_DTS
Duration : 1 h 41 min
Bit rate mode : Variable
Bit rate : 1 854 kb/s
Channel(s) : 6 channels
Channel layout : C L R Ls Rs LFE
Sampling rate : 48.0 kHz
Frame rate : 93.750 FPS (512 SPF)
Bit depth : 16 bits
Compression mode : Lossless
Delay relative to video : 4 ms
Stream size : 1.31 GiB (8%)
Title : DTS-HD Master Audio / 1855 kbps / 5.1 / 48 kHz / 16-bit
Language : English
Default : Yes
Forced : No

Audio #2
ID : 3
Format : DTS
Format/Info : Digital Theater Systems
Codec ID : A_DTS
Duration : 1 h 41 min
Bit rate mode : Constant
Bit rate : 318 kb/s
Channel(s) : 2 channels
Channel layout : L R
Sampling rate : 48.0 kHz
Frame rate : 93.750 FPS (512 SPF)
Bit depth : 16 bits
Compression mode : Lossy
Delay relative to video : 4 ms
Stream size : 230 MiB (1%)
Title : Commentary by director John Cameron Mitchell
Language : English
Default : No
Forced : No

Text #1
ID : 4
Format : UTF-8
Codec ID : S_TEXT/UTF8
Codec ID/Info : UTF-8 Plain Text
Duration : 1 h 32 min
Bit rate : 50 b/s
Count of elements : 1337
Stream size : 34.1 KiB (0%)
Language : English
Default : No
Forced : No

Text #2
ID : 5
Format : UTF-8
Codec ID : S_TEXT/UTF8
Codec ID/Info : UTF-8 Plain Text
Duration : 1 h 37 min
Bit rate : 62 b/s
Count of elements : 1713
Stream size : 44.5 KiB (0%)
Title : SDH
Language : English
Default : No
Forced : No

Menu
00:00:00.000 : en:Opening Sequence
00:06:55.373 : en:I\'m Home
00:15:41.607 : en:Jamie & James
00:23:05.133 : en:The Mistress of Shortbus
00:29:15.712 : en:Yenta 650
00:33:38.766 : en:Bitch
00:39:45.341 : en:About New York
00:45:03.951 : en:Star-Spangled Banner
00:50:57.429 : en:A Place of Love
00:57:05.589 : en:Non-Smoking Environment
01:03:35.395 : en:The Egg
01:08:16.968 : en:Three-Way
01:14:18.621 : en:Truth or Dare
01:20:05.926 : en:You Gave It Away?
01:26:03.116 : en:For Jamie
01:35:12.415 : en:This One\'s for Her



资源速度为零或资源敏感被和谐时,推荐使用qBittorrent等下载软件,有条件的推荐115更好的下载软件!

下载地址:


游客,如果您要查看本帖隐藏内容请回复




上一篇:回归之路(内封简繁中字)/The Way Back (2020) 4K高清版本下载
下一篇:克里斯托弗·罗宾 / Christopher Robin (2018) 4K高清版本下载
回复

使用道具 举报

2

主题

1367

帖子

3891

积分

4K家园VIP

Rank: 9Rank: 9Rank: 9

积分
3891
发表于 2022-4-3 20:15:45 | 显示全部楼层
感谢楼主的分享,还是阔以滴
回复 支持 反对

使用道具 举报

0

主题

2

帖子

22

积分

新手上路

Rank: 1

积分
22
发表于 2022-4-3 20:30:14 | 显示全部楼层
早就听说过,看看
回复 支持 反对

使用道具 举报

0

主题

22

帖子

327

积分

新手上路

Rank: 1

积分
327
发表于 2022-4-3 21:29:52 | 显示全部楼层
谢谢分享
回复

使用道具 举报

0

主题

29

帖子

140

积分

新手上路

Rank: 1

积分
140
发表于 2022-4-3 21:56:47 | 显示全部楼层
好东西。。。。。。。。。
回复

使用道具 举报

3

主题

1465

帖子

4249

积分

4K家园VIP

Rank: 9Rank: 9Rank: 9

积分
4249
发表于 2022-4-3 22:42:34 | 显示全部楼层
学习下
回复 支持 反对

使用道具 举报

0

主题

105

帖子

5768

积分

高级会员

Rank: 3Rank: 3

积分
5768
发表于 2022-4-4 08:38:32 | 显示全部楼层
感谢楼主的分享
回复 支持 反对

使用道具 举报

0

主题

1302

帖子

3922

积分

4K家园VIP

Rank: 9Rank: 9Rank: 9

积分
3922
发表于 2022-4-4 09:58:18 来自手机 | 显示全部楼层
楼主这资源不错,我收藏了
回复 支持 反对

使用道具 举报

0

主题

26

帖子

198

积分

新手上路

Rank: 1

积分
198
发表于 2022-4-4 15:22:47 | 显示全部楼层

感谢楼主的分享
回复 支持 反对

使用道具 举报

0

主题

1

帖子

6

积分

新手上路

Rank: 1

积分
6
发表于 2022-4-4 16:38:56 来自手机 | 显示全部楼层
好东西啊
回复

使用道具 举报

您需要登录后才可以回帖 登录 | 立即注册

本版积分规则

精彩图文
Archiver|手机版|TAG|Sitemap|新帖|专题|联系我们:邮箱: 4kjia.com@gmail.com   

4k家园   ©2019