[4K电影] 克里斯托弗·罗宾 / Christopher Robin (2018) 4K高清版本下载

[复制链接]

1723

主题

1856

帖子

1万

积分

超级版主

Rank: 8Rank: 8

积分
14024
 楼主| 发表于 2022-4-3 20:39:08 | 显示全部楼层 |阅读模式
本帖最后由 最爱4K哟 于 2022-4-3 21:25 编辑

QQ图片20220403202022_副本.png

◎译  名 克里斯托弗·罗宾/Winnie The Pooh/小熊维尼/小熊维尼真人版/挚友·维尼(台)/维尼与我(港)
◎片  名 Christopher Robin
◎年  代 2018
◎产  地 美国
◎类  别 喜剧 / 动画 / 冒险
◎语  言 英语
◎上映日期 2018-08-03(美国)
◎IMDb评分  7.2/10 from 75651 users
◎IMDb链接  https://www.imdb.com/title/tt4575576/
◎豆瓣评分 8.0/10 from 29569 users
◎豆瓣链接 https://movie.douban.com/subject/26359235/
◎片  长 104分钟
◎导  演 马克·福斯特 Marc Forster
◎编  剧 亚历克斯·罗斯·派瑞 Alex Ross Perry / 汤姆·麦卡锡 Tom McCarthy / 艾莉森·施罗德 Allison Schroeder / 格雷戈·布鲁克 Greg Brooker / 马克·斯蒂文·约翰逊 Mark Steven Johnson / A·A·米尔恩 A.A. Milne / 厄内斯特·谢巴德 Ernest Shepard
◎主  演 伊万·麦克格雷格 Ewan McGregor
      海莉·阿特维尔 Hayley Atwell
      勃朗特·卡迈克尔 Bronte Carmichael
      马克·加蒂斯 Mark Gatiss
      奥利弗·福德·戴维斯 Oliver Ford Davies
      阿德里安·斯卡伯勒 Adrian Scarborough
      罗杰·阿什顿-格里菲斯 Roger Ashton-Griffiths
      阿曼达·劳伦斯 Amanda Lawrence
      凯蒂·卡迈克尔 Katy Carmichael
      特里斯坦·斯特罗克 Tristan Sturrock
      保罗·查希迪 Paul Chahidi
      迈克尔·吉恩 Michael Jenn
      舒雅德·法瑞斯 Souad Faress
      马特·贝里 Matt Berry
      西蒙·法纳比 Simon Farnaby
      麦肯锡·克鲁克 Mackenzie Crook
      吉姆·卡明斯 Jim Cummings
      布拉德·加内特 Brad Garrett
      尼克·穆罕默德 Nick Mohammed
      彼得·卡帕尔迪 Peter Capaldi
      苏菲·奥康内多 Sophie Okonedo
      托比·琼斯 Toby Jones
      李·阿斯奎斯-柯 Lee Asquith-Coe
      罗伊·贝克 Roy Beck
      金塔雷·贝尼奥拉维特 Gintare Beinoraviciute
      贝恩·科拉科 Bern Colla?o
      托马斯·派登 Thomas Padden
      库姆德·潘特 Kumud Pant
      理查德·谢尔曼 Richard M. Sherman
      彼得·辛格 Peter Singh
      卡罗尔·斯蒂尔 Karol Steele
      艾薇·维 Evie Wray
      A·A·米尔恩 A.A. Milne
      罗恩·阿德科鲁埃 Ronke Adekoluejo
      加雷斯·梅森 Gareth Mason
      阿姆·阿勒卡迪 Amrou Al-Kadhi



◎简  介

  《克里斯托弗·罗宾》真人版讲述了一个温馨的故事。影片中,曾在百亩森林中与这群生机勃勃、惹人怜爱的小动物们嬉闹玩耍的小男孩已经长大成人。如今,眼看他逐渐迷失了人生方向,这群动物伙伴们决心走进人类世界,帮助克里斯托弗·罗宾记起内心深处那个友善活泼的自己。

◎获奖情况

  第91届奥斯卡金像奖 ?(2019)
  最佳视觉效果(提名) 西奥·琼斯?/?克里斯·劳伦斯?/?克里斯·考博德?/?迈克·伊姆斯

  第46届动画安妮奖 ?(2019)
  最佳真人电影动画角色(提名)

  第17届美国视觉效果协会奖 ?(2019)
  最佳特效电影视觉效果(提名)
  最佳真人电影CG动画角色(提名)

  第5届豆瓣电影年度榜单 ?(2018)
  评分最高的动画片(提名)
Video
ID : 1
Format : HEVC
Format/Info : High Efficiency Video Coding
Format profile : Main 10@L5@High
HDR format : Dolby Vision, Version 1.0, dvhe.05.06, BL+RPU
Codec ID : V_MPEGH/ISO/HEVC
Duration : 1 h 43 min
Bit rate : 24.5 Mb/s
Width : 3 840 pixels
Height : 1 604 pixels
Display aspect ratio : 2.40:1
Frame rate mode : Constant
Frame rate : 23.976 (24000/1001/189150) FPS
Original frame rate : 23.976 (23976/1000/189150) FPS
Color space : YUV
Chroma subsampling : 4:2:0
Bit depth : 10 bits
Bits/(Pixel*Frame) : 0.166
Stream size : 17.8 GiB (82%)
Language : English
Default : Yes
Forced : No

Audio #1
ID : 2
Format : DTS XLL
Format/Info : Digital Theater Systems
Commercial name : DTS-HD Master Audio
Codec ID : A_DTS
Duration : 1 h 43 min
Bit rate mode : Variable
Bit rate : 4 449 kb/s
Channel(s) : 8 channels
Channel layout : C L R LFE Lb Rb Lss Rss
Sampling rate : 48.0 kHz
Frame rate : 93.750 FPS (512 SPF)
Bit depth : 24 bits
Compression mode : Lossless
Stream size : 3.23 GiB (15%)
Title : DTS-HD MA 7.1
Language : English
Default : Yes
Forced : No

Audio #2
ID : 3
Format : E-AC-3 JOC
Format/Info : Enhanced AC-3 with Joint Object Coding
Commercial name : Dolby Digital Plus with Dolby Atmos
Codec ID : A_EAC3
Duration : 1 h 43 min
Bit rate mode : Constant
Bit rate : 768 kb/s
Channel(s) : 6 channels
Channel layout : L R C LFE Ls Rs
Sampling rate : 48.0 kHz
Frame rate : 31.250 FPS (1536 SPF)
Compression mode : Lossy
Stream size : 571 MiB (3%)
Title : DDP 5.1
Language : English
Service kind : Complete Main
Default : No
Forced : No
Complexity index : 16
Number of dynamic objects : 15
Bed channel count : 1 channel
Bed channel configuration : LFE

Text #1
ID : 4
Format : UTF-8
Codec ID : S_TEXT/UTF8
Codec ID/Info : UTF-8 Plain Text
Duration : 1 h 40 min
Bit rate : 103 b/s
Count of elements : 2071
Stream size : 75.5 KiB (0%)
Title : English
Language : English
Default : Yes
Forced : No

Text #2
ID : 5
Format : UTF-8
Codec ID : S_TEXT/UTF8
Codec ID/Info : UTF-8 Plain Text
Duration : 1 h 40 min
Bit rate : 77 b/s
Count of elements : 2072
Stream size : 56.7 KiB (0%)
Title : English
Language : English
Default : No
Forced : No

Text #3
ID : 6
Format : UTF-8
Codec ID : S_TEXT/UTF8
Codec ID/Info : UTF-8 Plain Text
Duration : 1 h 39 min
Bit rate : 66 b/s
Count of elements : 1701
Stream size : 48.1 KiB (0%)
Title : English
Language : English
Default : No
Forced : No

Text #4
ID : 7
Format : UTF-8
Codec ID : S_TEXT/UTF8
Codec ID/Info : UTF-8 Plain Text
Duration : 1 h 40 min
Bit rate : 77 b/s
Count of elements : 1753
Stream size : 56.9 KiB (0%)
Title : French Canadian
Language : French
Default : No
Forced : No

Text #5
ID : 8
Format : UTF-8
Codec ID : S_TEXT/UTF8
Codec ID/Info : UTF-8 Plain Text
Duration : 1 h 40 min
Bit rate : 63 b/s
Count of elements : 1746
Stream size : 47.1 KiB (0%)
Title : Latin America Spanish
Language : Spanish
Default : No
Forced : No

Text #6
ID : 9
Format : UTF-8
Codec ID : S_TEXT/UTF8
Codec ID/Info : UTF-8 Plain Text
Duration : 1 h 40 min
Bit rate : 63 b/s
Count of elements : 1732
Stream size : 46.7 KiB (0%)
Title : Portuguese Brazilian
Language : Portuguese
Default : No
Forced : No

Text #7
ID : 10
Format : PGS
Muxing mode : zlib
Codec ID : S_HDMV/PGS
Codec ID/Info : Picture based subtitle format used on BDs/HD-DVDs
Duration : 1 h 39 min
Bit rate : 42.7 kb/s
Count of elements : 3402
Stream size : 30.3 MiB (0%)
Title : English
Language : English
Default : No
Forced : No

Text #8
ID : 11
Format : PGS
Muxing mode : zlib
Codec ID : S_HDMV/PGS
Codec ID/Info : Picture based subtitle format used on BDs/HD-DVDs
Duration : 1 h 40 min
Bit rate : 51.7 kb/s
Count of elements : 4144
Stream size : 37.0 MiB (0%)
Title : English (SDH)
Language : English
Default : No
Forced : No

Text #9
ID : 12
Format : PGS
Muxing mode : zlib
Codec ID : S_HDMV/PGS
Codec ID/Info : Picture based subtitle format used on BDs/HD-DVDs
Duration : 1 h 40 min
Bit rate : 46.6 kb/s
Count of elements : 3506
Stream size : 33.5 MiB (0%)
Title : French
Language : French
Default : No
Forced : No

Text #10
ID : 13
Format : PGS
Muxing mode : zlib
Codec ID : S_HDMV/PGS
Codec ID/Info : Picture based subtitle format used on BDs/HD-DVDs
Duration : 1 h 40 min
Bit rate : 40.7 kb/s
Count of elements : 3492
Stream size : 29.3 MiB (0%)
Title : Spanish
Language : Spanish
Default : No
Forced : No

Menu
00:00:00.000 : :00:00:00.000
00:01:43.729 : :00:01:43.729
00:07:36.289 : :00:07:36.289
00:12:32.919 : :00:12:32.919
00:23:47.843 : :00:23:47.843
00:32:18.186 : :00:32:18.186
00:44:35.673 : :00:44:35.673
00:54:39.526 : :00:54:39.526
00:59:13.800 : :00:59:13.800
01:08:01.703 : :01:08:01.703
01:18:46.180 : :01:18:46.180
01:29:59.769 : :01:29:59.769
01:36:04.467 : :01:36:04.467
01:38:32.031 : :01:38:32.031
资源速度为零或资源敏感被和谐时,推荐使用qBittorrent等下载软件,有条件的推荐115更好的下载软件!

游客,如果您要查看本帖隐藏内容请回复

游客,如果您要查看本帖隐藏内容请回复

游客,如果您要查看本帖隐藏内容请回复

游客,如果您要查看本帖隐藏内容请回复





上一篇:性爱巴士 / Shortbus (2006) 4K高清版本下载
下一篇:耐撕侦探 / The Nice Guys (2016) 4K高清版本下载
回复

使用道具 举报

1

主题

1357

帖子

3903

积分

4K家园VIP

Rank: 9Rank: 9Rank: 9

积分
3903
发表于 2022-4-3 20:39:12 | 显示全部楼层
佩服佩服!
回复 支持 反对

使用道具 举报

0

主题

8229

帖子

1万

积分

4K家园VIP

Rank: 9Rank: 9Rank: 9

积分
18818
发表于 2022-4-3 20:46:36 | 显示全部楼层
太好啦&萬分感謝版主的無私發佈分享%
回复 支持 反对

使用道具 举报

0

主题

105

帖子

5768

积分

高级会员

Rank: 3Rank: 3

积分
5768
发表于 2022-4-4 08:35:05 | 显示全部楼层
感謝版主的無私分享
回复 支持 反对

使用道具 举报

0

主题

1

帖子

6

积分

新手上路

Rank: 1

积分
6
发表于 2022-4-6 19:54:52 | 显示全部楼层
hhaokan真的好看
回复 支持 反对

使用道具 举报

0

主题

1359

帖子

4091

积分

4K家园VIP

Rank: 9Rank: 9Rank: 9

积分
4091
发表于 2022-5-2 00:32:10 来自手机 | 显示全部楼层
支持一下楼主,顶起来
回复 支持 反对

使用道具 举报

4

主题

1354

帖子

4073

积分

4K家园VIP

Rank: 9Rank: 9Rank: 9

积分
4073
发表于 2022-5-8 10:50:25 | 显示全部楼层
我也顶起出售广告位
回复 支持 反对

使用道具 举报

47

主题

1474

帖子

4216

积分

4K家园VIP

Rank: 9Rank: 9Rank: 9

积分
4216
发表于 5 天前 | 显示全部楼层
LZ帖子不给力,勉强给回复下吧
回复 支持 反对

使用道具 举报

0

主题

1451

帖子

4167

积分

4K家园VIP

Rank: 9Rank: 9Rank: 9

积分
4167
发表于 前天 01:19 来自手机 | 显示全部楼层
看起来不错
回复 支持 反对

使用道具 举报

您需要登录后才可以回帖 登录 | 立即注册

本版积分规则

精彩图文
Archiver|手机版|TAG|Sitemap|新帖|专题|联系我们:邮箱: 4kjia.com@gmail.com   

4k家园   ©2019