[4K电影] 星际旅行1:无限太空 (1979) 4K高清版本下载

[复制链接]

1735

主题

1868

帖子

1万

积分

超级版主

Rank: 8Rank: 8

积分
14105
 楼主| 发表于 2022-4-5 16:17:47 | 显示全部楼层 |阅读模式
211007mxkifiigel5l5glg.png

◎译  名 星际旅行1:无限太空/星空奇遇记1:最后战线(港)/星际争霸战1/星际迷航:太空风云/星际迷航1/星际迷航之太空风云/星舰奇航记1:星际争霸战(台)/星舰迷航记1/Star Trek 1
◎片  名 Star Trek: The Motion Picture
◎年  代 1979
◎产  地 美国
◎类  别 科幻/悬疑/奇幻/冒险
◎语  言 英语/Klingon
◎上映日期 1979-12-06
◎IMDb评分  6.4/10 from 85780 users
◎IMDb链接  https://www.imdb.com/title/tt0079945/
◎豆瓣评分 7.7/10 from 14175 users
◎豆瓣链接 https://douban.com/subject/1300089/
◎片  长 132分钟
◎导  演 罗伯特·怀斯 Robert Wise
◎编  剧 哈罗德·利维斯顿 Harold Livingston / 吉恩·罗登贝瑞 Gene Roddenberry / Alan Dean Foster
◎主  演 威廉·夏特纳 William Shatner
       伦纳德·尼莫伊 Leonard Nimoy
       德福雷斯特·凯利 DeForest Kelley
       詹姆斯·杜汉 James Doohan
       武井乔治 George Takei
       珀西丝·汉姆巴塔 Persis Khambatta
       沃尔特·凯尼格 Walter Koenig
       尼切尔·尼克斯 Nichelle Nichols
       Billy Van Zandt
       马杰尔·巴雷特 Majel Barrett
       David Gerrold
       史蒂芬·柯林斯 Stephen Collins
       Christopher Doohan
       格雷斯·李·惠特尼 Grace Lee Whitney
       David Gautreaux
       Norman Stuart
       Bjo Trimble
       Marcy Lafferty
       Michael Rougas
       Franklyn Seales
       Tom Morga
       马克·雷纳德 Mark Lenard
       Gary Faga
       Roger Aaron Brown
       Ralph Byers
       Richard Arnold
       乔尔·克莱默 Joel Kramer
       Montgomery Doohan



◎简  介


  寇克将军,欢迎您重返企业号!
一团硕大无朋的高能离子云,在遥远而神秘的太空中迅疾地飘移。这团能量云具有无坚不摧的威力,足以毁灭宇宙间任何物质结构。在它所划过的轨迹上,早已有好几艘分属银河三大势力的星舰遇难了……
地球-银河系星球联邦的重镇,星际舰队总部的所在地。在位于北美洲旧金山的星际联邦舰队总部,寇克将军正像往常一样百无聊赖无所事事,突然间却接到了一个再好不过的命令检视企业号准备执行紧急任务。原来地球的防卫体系己经发现了那团高能离子云,而且侦测出它正对准地球飞来。寇克将军的任务,就是要赶在它到达地球之前,率领企业号先迎上去一探究竟。
阔别了将近十年,当寇克重新登上企业号时,内心的兴奋与激动真是难以形容。可是当他 随着现任的舰长迪卡检阅过了人员与装备之后,却又不禁兴起不少陌生的感觉。因为经过 这些年来的不断改良,企业号的功能与威力都增强了许多,但也因...

◎获奖情况 (共3项)
  第52届奥斯卡金像奖 (1980)
  最佳视觉效果(提名)
  最佳艺术指导(提名)
  最佳原创配乐(提名)
   └──杰瑞·高德史密斯 (id:1007116)


Video
ID : 1
Format : HEVC
Format/Info : High Efficiency Video Coding
Format profile : Main 10@L5@High
HDR format : SMPTE ST 2094 App 4, Version 1, HDR10+ Profile B compatible
Codec ID : V_MPEGH/ISO/HEVC
Duration : 2 h 16 min
Bit rate : 13.7 Mb/s
Width : 3 840 pixels
Height : 2 160 pixels
Display aspect ratio : 16:9
Frame rate mode : Constant
Frame rate : 23.976 (24000/1001/189150) FPS
Color space : YUV
Chroma subsampling : 4:2:0 (Type 2)
Bit depth : 10 bits
Bits/(Pixel*Frame) : 0.069
Stream size : 13.1 GiB (95%)
Default : Yes
Forced : No
Color range : Limited
Color primaries : BT.2020
Transfer characteristics : PQ
Matrix coefficients : BT.2020 non-constant
Mastering display color primaries : Display P3
Mastering display luminance : min: 0.0050 cd/m2, max: 4000 cd/m2
Maximum Content Light Level : 252 cd/m2

Audio
ID : 2
Format : E-AC-3 JOC
Format/Info : Enhanced AC-3 with Joint Object Coding
Commercial name : Dolby Digital Plus with Dolby Atmos
Codec ID : A_EAC3
Duration : 2 h 16 min
Bit rate mode : Constant
Bit rate : 768 kb/s
Channel(s) : 6 channels
Channel layout : L R C LFE Ls Rs
Sampling rate : 48.0 kHz
Frame rate : 31.250 FPS (1536 SPF)
Compression mode : Lossy
Stream size : 751 MiB (5%)
Language : English
Service kind : Complete Main
Default : Yes
Forced : No
Complexity index : 16
Number of dynamic objects : 15
Bed channel count : 1 channel
Bed channel configuration : LFE

Text #1
ID : 3
Format : UTF-8
Codec ID : S_TEXT/UTF8
Codec ID/Info : UTF-8 Plain Text
Duration : 2 h 4 min
Bit rate : 44 b/s
Count of elements : 1178
Stream size : 40.6 KiB (0%)
Language : English
Default : No
Forced : No

Text #2
ID : 4
Format : UTF-8
Codec ID : S_TEXT/UTF8
Codec ID/Info : UTF-8 Plain Text
Duration : 2 h 5 min
Bit rate : 46 b/s
Count of elements : 1241
Stream size : 42.4 KiB (0%)
Title : SDH
Language : English
Default : No
Forced : No


资源速度为零或资源敏感被和谐时,推荐使用qBittorrent等下载软件,有条件的推荐115更好的下载软件!

下载地址:


游客,如果您要查看本帖隐藏内容请回复

游客,如果您要查看本帖隐藏内容请回复

游客,如果您要查看本帖隐藏内容请回复





上一篇:耐撕侦探 / The Nice Guys (2016) 4K高清版本下载
下一篇:誓不低头 / The Outfit (2022) 4K高清版本下载
回复

使用道具 举报

2

主题

1166

帖子

3520

积分

4K家园VIP

Rank: 9Rank: 9Rank: 9

积分
3520
发表于 2022-4-5 16:17:51 | 显示全部楼层
出4K版啦,下个看看
回复 支持 反对

使用道具 举报

0

主题

346

帖子

2121

积分

注册会员

Rank: 2

积分
2121
发表于 2022-4-6 14:21:37 | 显示全部楼层
谢谢楼主分享
回复 支持 反对

使用道具 举报

52

主题

1495

帖子

4353

积分

4K家园VIP

Rank: 9Rank: 9Rank: 9

积分
4353
发表于 2022-4-8 00:35:33 来自手机 | 显示全部楼层
看帖要回,回帖才健康,在踩踩,楼主辛苦了!
回复 支持 反对

使用道具 举报

3

主题

1202

帖子

3620

积分

4K家园VIP

Rank: 9Rank: 9Rank: 9

积分
3620
发表于 2022-4-9 05:32:39 | 显示全部楼层
学习下
回复 支持 反对

使用道具 举报

3

主题

1368

帖子

4122

积分

4K家园VIP

Rank: 9Rank: 9Rank: 9

积分
4122
发表于 2022-4-9 15:14:22 | 显示全部楼层
不错 支持一个了
回复 支持 反对

使用道具 举报

3

主题

1385

帖子

3987

积分

4K家园VIP

Rank: 9Rank: 9Rank: 9

积分
3987
发表于 2022-4-16 06:08:51 来自手机 | 显示全部楼层
楼主呀,,,您太有才了。。。
回复 支持 反对

使用道具 举报

0

主题

2

帖子

15

积分

新手上路

Rank: 1

积分
15
发表于 7 天前 来自手机 | 显示全部楼层
作者大大谢谢
回复 支持 反对

使用道具 举报

您需要登录后才可以回帖 登录 | 立即注册

本版积分规则

精彩图文
Archiver|手机版|TAG|Sitemap|新帖|专题|联系我们:邮箱: 4kjia.com@gmail.com   

4k家园   ©2019