工厂 第一季 (2022)/ 4K高清版本下载

[复制链接]

130

主题

149

帖子

1459

积分

版主

Rank: 7Rank: 7Rank: 7

积分
1459
 楼主| 发表于 2022-4-5 16:49:27 | 显示全部楼层 |阅读模式

ea63408d52768b2401ee71db6e0c5922e4882043_副本.jpg

◎译  名 工厂 第一季
◎片  名 Life and Death in the Warehouse Season 1
◎年  代 2022
◎产  地 英国
◎类  别 剧情
◎语  言 英语
◎上映日期 2022-03-07(英国)
◎IMDb评分  7.6/10 from 178 users
◎IMDb链接  https://www.imdb.com/title/tt17519342/
◎豆瓣评分 0/10 from 0 users
◎豆瓣链接 https://movie.douban.com/subject/35807175/
◎集  数 1
◎片  长 60分钟
◎导  演 约瑟夫·布尔曼 / 艾莎·拉斐尔
◎编  剧 海伦·布莱克 / 约瑟夫·布尔曼
◎主  演 艾美·菲恩·爱德华兹
                   波比·李·弗里尔
                   克雷格·帕金森
                   锡安·丹尼尔·杨
                   亚历山大·莱利
                   金伯利·尼克松
                   亚历克斯·哈里斯
                   贾丽萨·安德鲁斯
                   娜塔莉亚·科斯特泽瓦



◎简  介


  梅根绝望地想保住她在威尔士一家仓库的新工作,她逼迫怀孕的艾丽斯提高她的“提货率”,这让她和她的孩子处于危险之中。
Video
ID : 1
Format : HEVC
Format/Info : High Efficiency Video Coding
Format profile : Main 10@L5.1@Main
Codec ID : V_MPEGH/ISO/HEVC
Duration : 59 min 36 s
Bit rate : 18.4 Mb/s
Width : 3 840 pixels
Height : 2 160 pixels
Display aspect ratio : 16:9
Frame rate mode : Constant
Frame rate : 25.000 FPS
Standard : Component
Color space : YUV
Chroma subsampling : 4:2:0
Bit depth : 10 bits
Bits/(Pixel*Frame) : 0.089
Stream size : 7.66 GiB (99%)
Default : Yes
Forced : No
Color range : Limited
Color primaries : BT.2020
Transfer characteristics : HLG
transfer_characteristics_Original : HLG / BT.2020 (10-bit)
Matrix coefficients : BT.2020 non-constant

Audio
ID : 2
Format : AAC LC
Format/Info : Advanced Audio Codec Low Complexity
Codec ID : A_AAC-2
Duration : 59 min 36 s
Bit rate : 192 kb/s
Channel(s) : 2 channels
Channel layout : L R
Sampling rate : 48.0 kHz
Frame rate : 46.875 FPS (1024 SPF)
Compression mode : Lossy
Stream size : 80.7 MiB (1%)
Language : English
Default : Yes
Forced : No

Text #1
ID : 3
Format : UTF-8
Codec ID : S_TEXT/UTF8
Codec ID/Info : UTF-8 Plain Text
Duration : 59 min 31 s
Bit rate : 97 b/s
Count of elements : 1115
Stream size : 42.3 KiB (0%)
Language : English
Default : No
Forced : No

Text #2
ID : 4
Format : UTF-8
Codec ID : S_TEXT/UTF8
Codec ID/Info : UTF-8 Plain Text
Duration : 59 min 31 s
Bit rate : 100 b/s
Count of elements : 1165
Stream size : 43.6 KiB (0%)
Title : SDH
Language : English
Default : No
Forced : No
下载地址:


游客,如果您要查看本帖隐藏内容请回复






上一篇:苍穹浩瀚(内嵌简繁中字) 第五季/全10集 (2022)/ 4K高清版本下载
下一篇:王朝 / Dynasties.UK 第二季/全4集 (2022)/ 4K高清版本下载
回复

使用道具 举报

37

主题

1509

帖子

4331

积分

4K家园VIP

Rank: 9Rank: 9Rank: 9

积分
4331
发表于 2022-4-5 16:49:58 | 显示全部楼层
报告!别开枪,我就是路过来看看的。。。
回复 支持 反对

使用道具 举报

1

主题

1389

帖子

3977

积分

4K家园VIP

Rank: 9Rank: 9Rank: 9

积分
3977
发表于 2022-4-5 20:22:24 来自手机 | 显示全部楼层
佩服佩服!
回复 支持 反对

使用道具 举报

2

主题

1401

帖子

4055

积分

4K家园VIP

Rank: 9Rank: 9Rank: 9

积分
4055
发表于 2022-4-7 00:33:53 | 显示全部楼层
哈哈,我只看看不说话
回复 支持 反对

使用道具 举报

2

主题

1468

帖子

4208

积分

4K家园VIP

Rank: 9Rank: 9Rank: 9

积分
4208
发表于 2022-4-8 08:39:46 | 显示全部楼层
我是个凑数的。。。
回复 支持 反对

使用道具 举报

5

主题

1489

帖子

4311

积分

4K家园VIP

Rank: 9Rank: 9Rank: 9

积分
4311
发表于 2022-4-8 12:22:33 | 显示全部楼层
为保住菊花,这个一定得回复!
回复 支持 反对

使用道具 举报

0

主题

8230

帖子

1万

积分

4K家园VIP

Rank: 9Rank: 9Rank: 9

积分
18830
发表于 2022-4-8 12:45:00 | 显示全部楼层
廣東龍門永遠馬到成功&萬分感謝版主的無私發佈分享%
回复 支持 反对

使用道具 举报

您需要登录后才可以回帖 登录 | 立即注册

本版积分规则

精彩图文
Archiver|手机版|TAG|Sitemap|新帖|专题|联系我们:邮箱: 4kjia.com@gmail.com   

4k家园   ©2019