[4K电影] 誓不低头 / The Outfit (2022) 4K高清版本下载

[复制链接]

1735

主题

1868

帖子

1万

积分

超级版主

Rank: 8Rank: 8

积分
14105
 楼主| 发表于 2022-4-7 15:46:40 | 显示全部楼层 |阅读模式
本帖最后由 最爱4K哟 于 2022-4-8 10:30 编辑

QQ图片20220407154006_副本.png

◎译  名 誓不低头/套装
◎片  名 The Outfit
◎年  代 2022
◎产  地 美国
◎类  别 剧情/犯罪
◎语  言 英语
◎上映日期 2022-02-14(柏林电影节)/2022-03-18(美国)
◎IMDb评分  7.5/10 from 1947 users
◎IMDb链接  https://www.imdb.com/title/tt14114802/
◎豆瓣评分 7.7/10 from 230 users
◎豆瓣链接 https://movie.douban.com/subject/35372415/
◎导  演 格拉汉姆·摩尔 Graham Moore / 格拉汉姆·摩尔 Graham Moore
◎主  演 马克·里朗斯 Mark Rylance
      佐伊·达奇 Zoey Deutch
      迪伦·奥布莱恩 Dylan O'Brien
      强尼·弗林 Johnny Flynn
      妮基·阿姆卡-伯德 Nikki Amuka-Bird
      西蒙·拉塞尔·比尔 Simon Russell Beale
      阿伦·梅迪扎德 Alan Mehdizadeh
      布赖恩·罗杰 Brian Rodger


◎简  介


  故事讲述英国裁缝 伦纳德(马克·里朗斯 饰)曾在世界闻名的伦敦萨维尔街做西服,但在经历了一场个人悲剧后,他来到了芝加哥,在镇上一个简陋的地方经营着一家小裁缝店,为周围唯一能负担得起的人制作漂亮衣服:一个邪恶的黑帮家庭。
Video
ID                             : 1
Format                         : AVC
Format/Info                    : Advanced Video Codec
Format profile                 : High@L5.1
Format settings                : CABAC / 4 Ref Frames
Format settings, CABAC         : Yes
Format settings, Reference fra : 4 frames
Codec ID                       : V_MPEG4/ISO/AVC
Duration                       : 1 h 45 min
Bit rate                       : 12.0 Mb/s
Nominal bit rate               : 4 440 kb/s
Width                          : 3 840 pixels
Height                         : 1 920 pixels
Display aspect ratio           : 2.000
Frame rate mode                : Variable
Frame rate                     : 23.976 FPS
Color space                    : YUV
Chroma subsampling             : 4:2:0
Bit depth                      : 8 bits
Scan type                      : Progressive
Bits/(Pixel*Frame)             : 0.068
Stream size                    : 8.87 GiB
Title                          : GalaxyRG - The.Outfit.2022.2160p.WEBRip.3500MB.DDP5.1.x264-GalaxyRG
Writing library                : x264 core 157
Encoding settings              : cabac=1 / ref=3 / deblock=1:0:0 / analyse=0x3:0x113 / me=hex / subme=7 / psy=1 / psy_rd=1.00:0.00 / mixed_ref=1 / me_range=16 / chroma_me=1 / trellis=1 / 8x8dct=1 / cqm=0 / deadzone=21,11 / fast_pskip=1 / chroma_qp_offset=-2 / threads=36 / lookahead_threads=6 / sliced_threads=0 / nr=0 / decimate=1 / interlaced=0 / bluray_compat=0 / constrained_intra=0 / bframes=3 / b_pyramid=2 / b_adapt=1 / b_bias=0 / direct=1 / weightb=1 / open_gop=0 / weightp=2 / keyint=250 / keyint_min=23 / scenecut=40 / intra_refresh=0 / rc_lookahead=40 / rc=2pass / mbtree=1 / bitrate=4440 / ratetol=1.0 / qcomp=0.60 / qpmin=0 / qpmax=69 / qpstep=4 / cplxblur=20.0 / qblur=0.5 / ip_ratio=1.40 / aq=1:1.00
Default                        : Yes
Forced                         : No

Audio
ID                             : 2
Format                         : E-AC-3
Format/Info                    : Enhanced AC-3
Commercial name                : Dolby Digital Plus
Codec ID                       : A_EAC3
Duration                       : 1 h 45 min
Bit rate mode                  : Constant
Bit rate                       : 320 kb/s
Channel(s)                     : 6 channels
Channel layout                 : L R C LFE Ls Rs
Sampling rate                  : 48.0 kHz
Frame rate                     : 31.250 FPS (1536 SPF)
Bit depth                      : 32 bits
Compression mode               : Lossy
Stream size                    : 289 MiB (8%)
Title                          : GalaxyRG - The.Outfit.2022.2160p.WEBRip.3500MB.DDP5.1.x264-GalaxyRG
Writing library                : Lavc58.35.100 eac3
Language                       : English
Service kind                   : Complete Main
Default                        : No
Forced                         : No

Text #1
ID                             : 3
Format                         : UTF-8
Codec ID                       : S_TEXT/UTF8
Codec ID/Info                  : UTF-8 Plain Text
Duration                       : 1 h 45 min
Bit rate                       : 63 b/s
Count of elements              : 1727
Stream size                    : 48.3 KiB (0%)
Title                          : GalaxyRG - The.Outfit.2022.2160p.WEBRip.3500MB.DDP5.1.x264-GalaxyRG
Language                       : English
Default                        : Yes
Forced                         : No

Text #2
ID                             : 4
Format                         : UTF-8
Codec ID                       : S_TEXT/UTF8
Codec ID/Info                  : UTF-8 Plain Text
Duration                       : 1 h 39 min
Bit rate                       : 58 b/s
Count of elements              : 1455
Stream size                    : 42.5 KiB (0%)
Title                          : English
Language                       : English
Default                        : No
Forced                         : No

Text #3
ID                             : 5
Format                         : UTF-8
Codec ID                       : S_TEXT/UTF8
Codec ID/Info                  : UTF-8 Plain Text
Duration                       : 1 h 45 min
Bit rate                       : 55 b/s
Count of elements              : 1215
Stream size                    : 42.1 KiB (0%)
Title                          : French Canadian
Language                       : French
Default                        : No
Forced                         : No

Text #4
ID                             : 6
Format                         : UTF-8
Codec ID                       : S_TEXT/UTF8
Codec ID/Info                  : UTF-8 Plain Text
Duration                       : 1 h 45 min
Bit rate                       : 48 b/s
Count of elements              : 1203
Stream size                    : 37.1 KiB (0%)
Title                          : Spanish
Language                       : Spanish
Default                        : No
Forced                         : No

迅雷下载资源速度为零或资源敏感被和谐时,推荐使用qBittorrent等下载软件,有条件的推荐115更好的下载软件!

下载地址:

游客,如果您要查看本帖隐藏内容请回复
游客,如果您要查看本帖隐藏内容请回复

游客,如果您要查看本帖隐藏内容请回复

游客,如果您要查看本帖隐藏内容请回复

游客,如果您要查看本帖隐藏内容请回复

游客,如果您要查看本帖隐藏内容请回复

游客,如果您要查看本帖隐藏内容请回复






上一篇:星际旅行1:无限太空 (1979) 4K高清版本下载
下一篇:痼习之地(内封简体中字) (2018) 4K高清版本下载
回复

使用道具 举报

1735

主题

1868

帖子

1万

积分

超级版主

Rank: 8Rank: 8

积分
14105
 楼主| 发表于 2022-4-7 15:50:25 | 显示全部楼层
The.Outfit.2022.2160p.WEBRip.3500MB.DDP5.1.x264-GalaxyRG.mkv_20220407_154729.489.jpg The.Outfit.2022.2160p.WEBRip.3500MB.DDP5.1.x264-GalaxyRG.mkv_20220407_154743.729.jpg The.Outfit.2022.2160p.WEBRip.3500MB.DDP5.1.x264-GalaxyRG.mkv_20220407_154814.505.jpg The.Outfit.2022.2160p.WEBRip.3500MB.DDP5.1.x264-GalaxyRG.mkv_20220407_154949.461.jpg
回复 支持 反对

使用道具 举报

4

主题

1665

帖子

4565

积分

4K家园VIP

Rank: 9Rank: 9Rank: 9

积分
4565
发表于 2022-4-7 15:46:46 | 显示全部楼层
锄禾日当午,发帖真辛苦。谁知坛中餐,帖帖皆辛苦!
回复 支持 反对

使用道具 举报

0

主题

8230

帖子

1万

积分

4K家园VIP

Rank: 9Rank: 9Rank: 9

积分
18830
发表于 2022-4-7 17:31:28 | 显示全部楼层
太好啦&萬分感謝版主的無私發佈分享%
回复 支持 反对

使用道具 举报

2

主题

234

帖子

3077

积分

中级会员

Rank: 4

积分
3077
发表于 2022-4-8 08:32:37 | 显示全部楼层
帖帖皆辛苦                  
回复 支持 反对

使用道具 举报

0

主题

1

帖子

6

积分

新手上路

Rank: 1

积分
6
发表于 2022-4-11 21:57:24 来自手机 | 显示全部楼层
多谢,非常好看。
回复 支持 反对

使用道具 举报

0

主题

1

帖子

6

积分

新手上路

Rank: 1

积分
6
发表于 2022-4-13 02:25:40 | 显示全部楼层

free live home cam

free live home cam
回复 支持 反对

使用道具 举报

1

主题

1419

帖子

4067

积分

4K家园VIP

Rank: 9Rank: 9Rank: 9

积分
4067
发表于 2022-4-13 11:48:57 | 显示全部楼层
啊啊啊啊啊啊啊啊啊啊啊
回复 支持 反对

使用道具 举报

0

主题

1

帖子

10

积分

新手上路

Rank: 1

积分
10
发表于 2022-4-15 22:19:40 | 显示全部楼层
非常好,正在找,谢谢
回复 支持 反对

使用道具 举报

0

主题

1

帖子

6

积分

新手上路

Rank: 1

积分
6
发表于 2022-4-18 12:41:06 | 显示全部楼层
感谢分享 顶
回复 支持 反对

使用道具 举报

您需要登录后才可以回帖 登录 | 立即注册

本版积分规则

精彩图文
Archiver|手机版|TAG|Sitemap|新帖|专题|联系我们:邮箱: 4kjia.com@gmail.com   

4k家园   ©2019