[4K电影] 甘草披萨 / Licorice Pizza (2021) 4K高清版本下载

[复制链接]

1733

主题

1866

帖子

1万

积分

超级版主

Rank: 8Rank: 8

积分
14095
 楼主| 发表于 2022-4-8 11:05:50 | 显示全部楼层 |阅读模式

QQ图片20220408110058_副本.png

◎译  名 甘草披萨/甘草比萨/湿底/Soggy Bottom/The Night of Counting the Years
◎片  名 Licorice Pizza
◎年  代 2021
◎产  地 美国/加拿大
◎类  别 剧情/喜剧
◎语  言 英语
◎上映日期 2021-11-26(美国点映)/2021-12-25(美国)
◎IMDb评分  7.4/10 from 71566 users
◎IMDb链接  https://www.imdb.com/title/tt11271038/
◎豆瓣评分 6.8/10 from 16351 users
◎豆瓣链接 https://movie.douban.com/subject/34888057/
◎导  演 保罗·托马斯·安德森 Paul Thomas Anderson
◎编  剧 保罗·托马斯·安德森 Paul Thomas Anderson
◎主  演 阿拉娜·哈伊姆 Alana Haim
       库珀·霍夫曼 Cooper Hoffman
       斯凯勒·吉桑多 Skyler Gisondo
       玛丽·伊丽莎白·埃利斯 Mary Elizabeth Ellis
       约翰·迈克尔·辛吉斯 John Michael Higgins
       克斯汀·埃伯索尔 Christine Ebersole
       哈里特·桑塞姆·哈里斯 Harriet Sansom Harris
       西恩·潘 Sean Penn
       汤姆·威兹 Tom Waits
       布莱德利·库珀 Bradley Cooper
       瑞恩·赫芬顿 Ryan Heffington
       内特·曼 Nate Mann
       本·萨弗迪 Ben Safdie
       约瑟夫·克罗斯 Joseph Cross
       丹妮尔·哈伊姆 Danielle Haim
       埃斯特·哈伊姆 Este Haim
       莫迪·哈伊姆 Moti Haim
       唐娜·哈伊姆 Donna Haim
       玛娅·鲁道夫 Maya Rudolph
       约翰·C·赖利 John C. Reilly
       艾玛·杜蒙特 Emma Dumont
       萨沙·斯皮尔伯格 Sasha Spielberg
       德莱纳·米切尔 Delaina Mitchell
       利兹·卡科斯基 Liz Cackowski
       泰勒·杨 Tyler Young
       Josh Monkarsh Josh Monkarsh
       马克斯·米切尔 Max Mitchell
       Tim Conway Jr. Tim Conway Jr.
       伊亚娜·哈雷 Iyana Halley
       艾米莉·奥尔索斯 Emily Althaus
       克雷格·斯塔克 Craig Stark
       雷·蔡斯 Ray Chase
       可可·索伦 Coco Soren
       伊莎贝尔·库斯曼 Isabelle Kusman
       雷·尼科尔森 Ray Nicholson
       贾亮 Josh Richards
       安东尼·莫利纳利 Anthony Molinari
       理查德·B·拉里莫尔 Richard B. Larimore
       米洛·赫施拉格

◎简  介

  这部影片以20世纪70年代为背景,故事围绕一位高中生,讲述了阿拉娜·凯恩和加里·瓦伦丁在1973年在圣费尔南多谷成长、四处奔波和坠入爱河的故事。


◎获奖情况


  第94届奥斯卡金像奖(2022)
  最佳影片(提名)
  最佳导演(提名)
  最佳原创剧本(提名)

  第79届金球奖(2022)
  电影类 最佳音乐/喜剧片(提名)
  电影类 音乐/喜剧片最佳男主角(提名)
  电影类 音乐/喜剧片最佳女主角(提名)
  电影类 最佳编剧(提名)

  第75届英国电影学院奖(2022)
  电影奖 最佳影片(提名)
  电影奖 最佳导演(提名)
  电影奖 最佳女主角(提名)
  电影奖 最佳原创剧本
  电影奖 最佳剪辑(提名)

  第74届美国导演工会奖(2022)
  最佳电影导演(提名)
  第28届美国演员工会奖(2022)
  电影奖 最佳男配角(提名)

  第74届美国编剧工会奖(2022)
  电影奖 最佳原创剧本(提名)
  第87届纽约影评人协会奖(2021)

  最佳剧本
  第27届美国评论家选择电影奖(2022)
  最佳影片(提名)
  最佳导演(提名)
  最佳女主角(提名)
  最佳青少年演员(提名)
  最佳群戏(提名)
  最佳喜剧片
  最佳原创剧本(提名)
  最佳剪辑(提名)

  第56届美国国家影评人协会奖(2022)
  最佳女主角(提名)
  最佳剧本(提名)
Video
ID : 1
Format : HEVC
Format/Info : High Efficiency Video Coding
Format profile : Main 10@L5@Main
HDR format : SMPTE ST 2094 App 4, Version 1, HDR10+ Profile B compatible
Codec ID : V_MPEGH/ISO/HEVC
Duration : 2 h 13 min
Bit rate : 14.9 Mb/s
Width : 3 840 pixels
Height : 1 600 pixels
Display aspect ratio : 2.40:1
Frame rate mode : Constant
Frame rate : 23.976 (24000/1001/189150) FPS
Color space : YUV
Chroma subsampling : 4:2:0
Bit depth : 10 bits
Bits/(Pixel*Frame) : 0.101
Stream size : 13.9 GiB (96%)
Language : English
Default : Yes
Forced : No
Color range : Limited
Color primaries : BT.2020
Transfer characteristics : PQ
Matrix coefficients : BT.2020 non-constant
Mastering display color primaries : Display P3
Mastering display luminance : min: 0.0050 cd/m2, max: 1000 cd/m2
Maximum Content Light Level : 274 cd/m2
Maximum Frame-Average Light Level : 196 cd/m2

Audio
ID : 2
Format : E-AC-3
Format/Info : Enhanced AC-3
Commercial name : Dolby Digital Plus
Codec ID : A_EAC3
Duration : 2 h 13 min
Bit rate mode : Constant
Bit rate : 640 kb/s
Channel(s) : 6 channels
Channel layout : L R C LFE Ls Rs
Sampling rate : 48.0 kHz
Frame rate : 31.250 FPS (1536 SPF)
Compression mode : Lossy
Stream size : 611 MiB (4%)
Language : English
Service kind : Complete Main
Default : Yes
Forced : No

Text #1
ID : 3
Format : UTF-8
Codec ID : S_TEXT/UTF8
Codec ID/Info : UTF-8 Plain Text
Duration : 2 h 6 min
Bit rate : 71 b/s
Count of elements : 2259
Stream size : 65.8 KiB (0%)
Language : English
Default : No
Forced : No

Text #2
ID : 4
Format : UTF-8
Codec ID : S_TEXT/UTF8
Codec ID/Info : UTF-8 Plain Text
Duration : 2 h 6 min
Bit rate : 80 b/s
Count of elements : 2447
Stream size : 74.4 KiB (0%)
Title : SDH
Language : English
Default : No
Forced : No
资源速度为零或资源敏感被和谐时,推荐使用qBittorrent等下载软件,有条件的推荐115更好的下载软件!

下载地址:



游客,如果您要查看本帖隐藏内容请回复





上一篇:痼习之地(内封简体中字) (2018) 4K高清版本下载
下一篇:流浪者:一部关于安东尼·波登的电影 (2021) 4K高清版本下载
回复

使用道具 举报

1

主题

1275

帖子

3843

积分

4K家园VIP

Rank: 9Rank: 9Rank: 9

积分
3843
发表于 2022-4-8 11:05:57 | 显示全部楼层
怎么这么大,希望我电视能看啊
回复 支持 反对

使用道具 举报

0

主题

346

帖子

2121

积分

注册会员

Rank: 2

积分
2121
发表于 2022-4-8 12:14:17 | 显示全部楼层
谢谢楼主分享
回复 支持 反对

使用道具 举报

1

主题

1263

帖子

3807

积分

4K家园VIP

Rank: 9Rank: 9Rank: 9

积分
3807
发表于 2022-4-10 18:46:40 | 显示全部楼层
高手云集 果断围观
回复 支持 反对

使用道具 举报

0

主题

14

帖子

95

积分

新手上路

Rank: 1

积分
95
发表于 2022-4-11 16:39:54 | 显示全部楼层
kankanxiazaiyixia
回复 支持 反对

使用道具 举报

2

主题

1418

帖子

4106

积分

中级会员

Rank: 4

积分
4106
发表于 2022-4-20 20:43:19 | 显示全部楼层
4K家园资源最近貌似越来越多了
回复 支持 反对

使用道具 举报

1

主题

1604

帖子

4418

积分

4K家园VIP

Rank: 9Rank: 9Rank: 9

积分
4418
发表于 2022-4-21 15:27:54 来自手机 | 显示全部楼层
回个帖子,下班咯~
回复 支持 反对

使用道具 举报

0

主题

1375

帖子

4141

积分

4K家园VIP

Rank: 9Rank: 9Rank: 9

积分
4141
发表于 2022-4-21 20:03:15 | 显示全部楼层
前排顶,很好!
回复 支持 反对

使用道具 举报

您需要登录后才可以回帖 登录 | 立即注册

本版积分规则

精彩图文
Archiver|手机版|TAG|Sitemap|新帖|专题|联系我们:邮箱: 4kjia.com@gmail.com   

4k家园   ©2019