[4K电影] 流浪者:一部关于安东尼·波登的电影 (2021) 4K高清版本下载

[复制链接]

1723

主题

1856

帖子

1万

积分

超级版主

Rank: 8Rank: 8

积分
14024
 楼主| 发表于 2022-4-8 11:15:47 | 显示全部楼层 |阅读模式
本帖最后由 最爱4K哟 于 2022-4-8 12:26 编辑

QQ图片20220408111322_副本1.png

◎译  名 流浪者:一部关于安东尼·波登的电影
◎片  名 Roadrunner: A Film About Anthony Bourdain
◎年  代 2021
◎产  地 美国/加拿大
◎类  别 纪录片
◎语  言 英语
◎上映日期 2021-07-16(美国)
◎IMDb评分  7.7/10 from 4813 users
◎IMDb链接  https://www.imdb.com/title/tt14512538/
◎豆瓣评分 8.2/10 from 132 users
◎豆瓣链接 https://movie.douban.com/subject/35447601/
◎片  长 118分钟
◎导  演 摩根·内维尔
◎主  演 安东尼·鲍代恩



◎简  介


         “重要的不是你去哪里。这是你留下的东西……”这部关于安东尼·波登的纪录片。记录了他作为厨师、作家和主持人的职业生涯。讲述了一位默默无闻的厨师如何成为世界著名的文化偶像。
Video
ID                             : 1
Format                         : HEVC
Format/Info                    : High Efficiency Video Coding
Format profile                 : Main 10@L5@High
HDR format                     : SMPTE ST 2086, HDR10 compatible
Codec ID                       : V_MPEGH/ISO/HEVC
Duration                       : 1 h 59 min
Bit rate                       : 14.3 Mb/s
Width                          : 3 840 pixels
Height                         : 2 160 pixels
Display aspect ratio           : 16:9
Frame rate mode                : Constant
Frame rate                     : 23.976 FPS
Color space                    : YUV
Chroma subsampling             : 4:2:0 (Type 2)
Bit depth                      : 10 bits
Bits/(Pixel*Frame)             : 0.072
Stream size                    : 11.9 GiB (97%)
Default                        : Yes
Forced                         : No
Color range                    : Limited
Color primaries                : BT.2020
Transfer characteristics       : PQ
Matrix coefficients            : BT.2020 non-constant
Mastering display color primar : Display P3
Mastering display luminance    : min: 0.0050 cd/m2, max: 1000 cd/m2
Maximum Content Light Level    : 1015 cd/m2
Maximum Frame-Average Light Le : 999 cd/m2

Audio
ID                             : 2
Format                         : AC-3
Format/Info                    : Audio Coding 3
Commercial name                : Dolby Digital
Codec ID                       : A_AC3
Duration                       : 1 h 59 min
Bit rate mode                  : Constant
Bit rate                       : 384 kb/s
Channel(s)                     : 6 channels
Channel layout                 : L R C LFE Ls Rs
Sampling rate                  : 48.0 kHz
Frame rate                     : 31.250 FPS (1536 SPF)
Compression mode               : Lossy
Stream size                    : 327 MiB (3%)
Language                       : English
Service kind                   : Complete Main
Default                        : Yes
Forced                         : No

Text #1
ID                             : 3
Format                         : UTF-8
Codec ID                       : S_TEXT/UTF8
Codec ID/Info                  : UTF-8 Plain Text
Duration                       : 1 h 21 min
Bit rate                       : 0 b/s
Count of elements              : 17
Stream size                    : 591 Bytes (0%)
Title                          : English Forced
Language                       : English
Default                        : Yes
Forced                         : Yes

Text #2
ID                             : 4
Format                         : UTF-8
Codec ID                       : S_TEXT/UTF8
Codec ID/Info                  : UTF-8 Plain Text
Duration                       : 1 h 58 min
Bit rate                       : 77 b/s
Count of elements              : 1708
Stream size                    : 67.3 KiB (0%)
Title                          : Danish
Language                       : Danish
Default                        : No
Forced                         : No

Text #3
ID                             : 5
Format                         : UTF-8
Codec ID                       : S_TEXT/UTF8
Codec ID/Info                  : UTF-8 Plain Text
Duration                       : 1 h 57 min
Bit rate                       : 82 b/s
Count of elements              : 1651
Stream size                    : 71.0 KiB (0%)
Title                          : Spanish Latin American
Language                       : Spanish
Default                        : No
Forced                         : No

Text #4
ID                             : 6
Format                         : UTF-8
Codec ID                       : S_TEXT/UTF8
Codec ID/Info                  : UTF-8 Plain Text
Duration                       : 1 h 58 min
Bit rate                       : 77 b/s
Count of elements              : 1708
Stream size                    : 66.9 KiB (0%)
Title                          : Finnish
Language                       : Finnish
Default                        : No
Forced                         : No

Text #5
ID                             : 7
Format                         : UTF-8
Codec ID                       : S_TEXT/UTF8
Codec ID/Info                  : UTF-8 Plain Text
Duration                       : 1 h 58 min
Bit rate                       : 77 b/s
Count of elements              : 1707
Stream size                    : 67.0 KiB (0%)
Title                          : Norwegian
Language                       : Norwegian
Default                        : No
Forced                         : No

Text #6
ID                             : 8
Format                         : UTF-8
Codec ID                       : S_TEXT/UTF8
Codec ID/Info                  : UTF-8 Plain Text
Duration                       : 1 h 58 min
Bit rate                       : 75 b/s
Count of elements              : 1691
Stream size                    : 65.3 KiB (0%)
Title                          : Polish
Language                       : Polish
Default                        : No
Forced                         : No

Text #7
ID                             : 9
Format                         : UTF-8
Codec ID                       : S_TEXT/UTF8
Codec ID/Info                  : UTF-8 Plain Text
Duration                       : 1 h 55 min
Bit rate                       : 82 b/s
Count of elements              : 1859
Stream size                    : 70.0 KiB (0%)
Title                          : Portuguese Brazilian
Language                       : Portuguese
Default                        : No
Forced                         : No

Text #8
ID                             : 10
Format                         : UTF-8
Codec ID                       : S_TEXT/UTF8
Codec ID/Info                  : UTF-8 Plain Text
Duration                       : 1 h 58 min
Bit rate                       : 136 b/s
Count of elements              : 1718
Stream size                    : 119 KiB (0%)
Title                          : Russian
Language                       : Russian
Default                        : No
Forced                         : No

Text #9
ID                             : 11
Format                         : UTF-8
Codec ID                       : S_TEXT/UTF8
Codec ID/Info                  : UTF-8 Plain Text
Duration                       : 1 h 58 min
Bit rate                       : 78 b/s
Count of elements              : 1705
Stream size                    : 68.3 KiB (0%)
Title                          : Swedish
Language                       : Swedish
Default                        : No
Forced                         : No

Text #10
ID                             : 12
Format                         : UTF-8
Codec ID                       : S_TEXT/UTF8
Codec ID/Info                  : UTF-8 Plain Text
Duration                       : 1 h 58 min
Bit rate                       : 83 b/s
Count of elements              : 1711
Stream size                    : 72.0 KiB (0%)
Title                          : Turkish
Language                       : Turkish
Default                        : No
Forced                         : No
资源速度为零或资源敏感被和谐时,推荐使用qBittorrent等下载软件,有条件的推荐115更好的下载软件!

下载地址:


游客,如果您要查看本帖隐藏内容请回复

游客,如果您要查看本帖隐藏内容请回复





上一篇:甘草披萨 / Licorice Pizza (2021) 4K高清版本下载
下一篇:水俣病 / Minamata (2020) 4K高清版本下载
回复

使用道具 举报

4

主题

1371

帖子

4135

积分

4K家园VIP

Rank: 9Rank: 9Rank: 9

积分
4135
发表于 2022-4-8 11:15:51 | 显示全部楼层
顶起顶起顶起
回复 支持 反对

使用道具 举报

49

主题

1473

帖子

4245

积分

4K家园VIP

Rank: 9Rank: 9Rank: 9

积分
4245
发表于 2022-4-8 11:15:51 来自手机 | 显示全部楼层
介是神马?!!
回复 支持 反对

使用道具 举报

0

主题

8229

帖子

1万

积分

4K家园VIP

Rank: 9Rank: 9Rank: 9

积分
18818
发表于 2022-4-8 12:43:38 | 显示全部楼层
廣東龍門永遠馬到成功&萬分感謝版主的無私發佈分享%
回复 支持 反对

使用道具 举报

0

主题

709

帖子

2492

积分

注册会员

Rank: 2

积分
2492
发表于 2022-4-9 21:53:35 | 显示全部楼层
谢谢楼主分享
回复 支持 反对

使用道具 举报

2

主题

1671

帖子

4631

积分

4K家园VIP

Rank: 9Rank: 9Rank: 9

积分
4631
发表于 2022-4-10 04:29:39 | 显示全部楼层
大人,此事必有蹊跷!
回复 支持 反对

使用道具 举报

4

主题

1354

帖子

4073

积分

4K家园VIP

Rank: 9Rank: 9Rank: 9

积分
4073
发表于 2022-4-19 02:34:52 | 显示全部楼层
支持你哈...................................
回复 支持 反对

使用道具 举报

1

主题

1344

帖子

4050

积分

4K家园VIP

Rank: 9Rank: 9Rank: 9

积分
4050
发表于 2022-4-24 10:16:36 | 显示全部楼层
占坑编辑ing
回复 支持 反对

使用道具 举报

您需要登录后才可以回帖 登录 | 立即注册

本版积分规则

精彩图文
Archiver|手机版|TAG|Sitemap|新帖|专题|联系我们:邮箱: 4kjia.com@gmail.com   

4k家园   ©2019