[4K电影] 水俣病 / Minamata (2020) 4K高清版本下载

[复制链接]

1723

主题

1856

帖子

1万

积分

超级版主

Rank: 8Rank: 8

积分
14024
 楼主| 发表于 2022-4-8 12:41:06 | 显示全部楼层 |阅读模式
本帖最后由 最爱4K哟 于 2022-4-8 13:25 编辑

QQ图片20220408123801_副本.png

◎译  名 水俣病/水俣/毒水曝光(港)/恶水真相(台)
◎片  名 Minamata
◎年  代 2020
◎产  地 英国
◎类  别 剧情
◎语  言 英语/日语
◎上映日期 2021-04-22(中国香港)/2020-02-21(柏林电影节)
◎IMDb评分  7.6/10 from 16373 users
◎IMDb链接  https://www.imdb.com/title/tt9179096/
◎豆瓣评分 6.9/10 from 3903 users
◎豆瓣链接 https://movie.douban.com/subject/30359665/
◎导  演 安德鲁·莱维塔斯 Andrew Levitas
◎编  剧 大卫·凯斯勒 David Kessler / 安德鲁·莱维塔斯 Andrew Levitas
◎主  演 约翰尼·德普 Johnny Depp
       美波 Minami
       比尔·奈伊 Bill Nighy
       真田广之 Hiroyuki Sanada
       浅野忠信 Tadanobu Asano
       凯瑟琳·詹金斯 Katherine Jenkins
       国村隼 Jun Kunimura
       加濑亮 Ryo Kase
       羽田正义 Masayoshi Haneda

◎简  介

  约翰尼·德普将主演惊悚片《水俣病》(Minamata),饰演史上最著名的摄影记者之一尤金·史密斯。影片由Andrew Levitas(《摇篮曲》)执导,明年1月在日本开拍,也将去塞尔维亚拍摄。讲述因二战时期作品而知名的摄影师史密斯在1971年本已隐居,但受Life杂志编辑Ralph Graves委托,他再次拿起相机,去日本记录因汞污染引起的震惊全球的怪病“水俣病”现状,和政府所做的掩盖。当时该事件已进入确定责任阶段,受害者与企业谈判中。
Video
ID                             : 1
Format                         : HEVC
Format/Info                    : High Efficiency Video Coding
Format profile                 : Main 10@L5@High
Codec ID                       : V_MPEGH/ISO/HEVC
Duration                       : 1 h 55 min
Bit rate                       : 11.5 Mb/s
Width                          : 3 836 pixels
Height                         : 2 072 pixels
Display aspect ratio           : 1.85:1
Frame rate mode                : Constant
Frame rate                     : 23.976 (24000/1001) FPS
Color space                    : YUV
Chroma subsampling             : 4:2:0
Bit depth                      : 10 bits
Bits/(Pixel*Frame)             : 0.060
Stream size                    : 9.24 GiB (95%)
Default                        : Yes
Forced                         : No
Color range                    : Limited
Color primaries                : BT.709
Transfer characteristics       : BT.709
Matrix coefficients            : BT.709

Audio
ID                             : 2
Format                         : AC-3
Format/Info                    : Audio Coding 3
Commercial name                : Dolby Digital
Codec ID                       : A_AC3
Duration                       : 1 h 55 min
Bit rate mode                  : Constant
Bit rate                       : 384 kb/s
Channel(s)                     : 6 channels
Channel layout                 : L R C LFE Ls Rs
Sampling rate                  : 48.0 kHz
Frame rate                     : 31.250 FPS (1536 SPF)
Compression mode               : Lossy
Stream size                    : 317 MiB (3%)
Language                       : English
Service kind                   : Complete Main
Default                        : Yes
Forced                         : No

资源速度为零或资源敏感被和谐时,推荐使用qBittorrent等下载软件,有条件的推荐115更好的下载软件!

下载地址:


****此区域为收费内容****    需支付 9 金币后可查看立即购买




上一篇:流浪者:一部关于安东尼·波登的电影 (2021) 4K高清版本下载
下一篇:宝刀未老 / All the Old Knives (2022) 4K高清版本下载
回复

使用道具 举报

1

主题

1366

帖子

4116

积分

4K家园VIP

Rank: 9Rank: 9Rank: 9

积分
4116
发表于 2022-4-8 12:41:12 来自手机 | 显示全部楼层
顶顶更健康
回复 支持 反对

使用道具 举报

0

主题

8229

帖子

1万

积分

4K家园VIP

Rank: 9Rank: 9Rank: 9

积分
18818
发表于 2022-4-8 12:44:08 | 显示全部楼层
廣東龍門永遠馬到成功&萬分感謝版主的無私發佈分享%
回复 支持 反对

使用道具 举报

0

主题

1647

帖子

4571

积分

4K家园VIP

Rank: 9Rank: 9Rank: 9

积分
4571
发表于 2022-4-8 14:41:47 来自手机 | 显示全部楼层
4K家园资源不错,前排支持
回复 支持 反对

使用道具 举报

1

主题

1297

帖子

3915

积分

4K家园VIP

Rank: 9Rank: 9Rank: 9

积分
3915
发表于 2022-4-8 15:13:04 | 显示全部楼层
向楼主学习
回复 支持 反对

使用道具 举报

3

主题

1368

帖子

4122

积分

4K家园VIP

Rank: 9Rank: 9Rank: 9

积分
4122
发表于 2022-4-8 17:35:40 | 显示全部楼层
占位编辑
回复 支持 反对

使用道具 举报

1

主题

1361

帖子

4097

积分

4K家园VIP

Rank: 9Rank: 9Rank: 9

积分
4097
发表于 2022-4-9 00:56:50 | 显示全部楼层
正好需要啊
回复 支持 反对

使用道具 举报

您需要登录后才可以回帖 登录 | 立即注册

本版积分规则

精彩图文
Archiver|手机版|TAG|Sitemap|新帖|专题|联系我们:邮箱: 4kjia.com@gmail.com   

4k家园   ©2019