[4K UHD 蓝光原盘] 湮灭 / Annihilation (2018) 4K蓝光[原盘+REMUX]版本下载

[复制链接]

1557

主题

1626

帖子

1万

积分

超级版主

Rank: 8Rank: 8

积分
17433
 楼主| 发表于 2022-4-11 17:16:31 | 显示全部楼层 |阅读模式
QQ图片20220411170950_副本.png

◎译  名 湮灭 / 灭。境(港) / 灭绝(台) / 遗落的南境1:湮灭
◎片  名 Annihilation
◎年  代 2018
◎产  地 美国 / 英国
◎类  别 剧情 / 科幻 / 惊悚
◎语  言 英语
◎上映日期 2018-04-13(中国大陆) / 2018-02-23(美国)
◎IMDb评分  6.8/10 from 310855 users
◎IMDb链接 https://www.imdb.com/title/tt2798920/
◎豆瓣评分 7.2/10 from 336443 users
◎豆瓣链接 https://movie.douban.com/subject/26384741/
◎片  长 115分钟
◎导  演 亚历克斯·加兰 Alex Garland
◎编  剧 亚历克斯·加兰 Alex Garland / 杰夫·万德米尔 Jeff VanderMeer
◎演  员 娜塔莉·波特曼 Natalie Portman
      詹妮弗·杰森·李 Jennifer Jason Leigh
      吉娜·罗德里格兹 Gina Rodriguez
      泰莎·汤普森 Tessa Thompson
      奥斯卡·伊萨克 Oscar Isaac
      水野索诺娅 Sonoya Mizuno
      大卫·吉亚西 David Gyasi
      图娃·诺沃妮 Tuva Novotny
      本尼迪克特·王 Benedict Wong
      约翰·施瓦布 John Schwab
      萨米·海曼 Sammy Hayman
      乔希·丹福德 Josh Danford
      克里斯汀·麦加里蒂 Kristen McGarrity
      克里斯塔·克拉克 Crystal Clarke
      库姆德潘特 Kumud Pant
      柯斯莫·贾维斯 Cosmo Jarvis
      伊莱·布什 Eli Bush
      Ben Salisbury Ben Salisbury
      吉奥夫·巴罗 Geoff Barrow
      罗伯·哈迪 Rob Hardy
      萨米·谢尔顿 Sammy Sheldon
      卡洛斯·华达德 Carlos Ciudad
      亚当·卢瑟福 Adam Rutherford


◎简  介


  莉娜(娜塔莉·波特曼 Natalie Portman 饰)是一名生物学家,一年前,她的丈夫凯恩(奥斯卡·伊萨克 Oscar Isaac 饰)在参加一项秘密任务后神秘失踪,这一年间,莉娜一直生活在悲伤之中。某天,失忆的凯恩忽然出现在了莉娜的面前,之后晕倒被送入了医院。在那里,莉娜遇见了文崔斯博士(詹妮弗·杰森·李 Jennifer Jason Leigh 饰)。
博士告诉莉娜,凯恩被派往了一块被“闪光”笼罩的未知区域,三年间,无数的队伍被派往区域内进行勘探,只有凯恩一人活着回来了。不仅如此,“闪光”正在不断的扩大。为了查明事情的真相,莉娜自愿加入了下一批被派遣的队伍之中,和她一同前往的,除了文崔斯博士外,还有安雅(吉娜·罗德里格兹 Gina Rodriguez 饰)和乔茜(泰莎·汤普森 Tessa Thompson 饰)。

◎获奖情况 (共6项)
  第24届美国评论家选择电影奖 (2019)
  最佳科幻/恐怖片(提名)

  第31届芝加哥影评人协会奖 (2018)
  最佳视觉效果
  最佳艺术指导(提名)

  第22届美国在线影评人协会奖 (2019)
  最佳影片(提名)
  最佳视觉效果

  第5届豆瓣电影年度榜单 (2018)
  评分最高的科幻/动作片(提名)

Video
ID : 1
ID in the original source medium : 4113 (0x1011)
Format : HEVC
Format/Info : High Efficiency Video Coding
Format profile : Main 10@L5.1@High
HDR format : Dolby Vision, Version 1.0, dvhe.07.06, BL+EL+RPU, Blu-ray compatible / SMPTE ST 2086, HDR10 compatible
Codec ID : V_MPEGH/ISO/HEVC
Duration : 1 h 55 min
Bit rate : 50.0 Mb/s
Width : 3 840 pixels
Height : 2 160 pixels
Display aspect ratio : 16:9
Frame rate mode : Constant
Frame rate : 23.976 (24000/1001/189150) FPS
Color space : YUV
Chroma subsampling : 4:2:0 (Type 2)
Bit depth : 10 bits
Bits/(Pixel*Frame) : 0.251
Stream size : 40.2 GiB (83%)
Language : English
Default : No
Forced : No
Color range : Limited
Color primaries : BT.2020
Transfer characteristics : PQ
Matrix coefficients : BT.2020 non-constant
Mastering display color primaries : Display P3
Mastering display luminance : min: 0.0001 cd/m2, max: 1000 cd/m2
Original source medium : Blu-ray

Audio #1
ID : 2
ID in the original source medium : 4352 (0x1100)
Format : MLP FBA 16-ch
Format/Info : Meridian Lossless Packing FBA with 16-channel presentation
Commercial name : Dolby TrueHD with Dolby Atmos
Codec ID : A_TRUEHD
Duration : 1 h 55 min
Bit rate mode : Variable
Bit rate : 4 062 kb/s
Maximum bit rate : 7 278 kb/s
Channel(s) : 8 channels
Channel layout : L R C LFE Ls Rs Lb Rb
Sampling rate : 48.0 kHz
Frame rate : 1 200.000 FPS (40 SPF)
Bit depth : 24 bits
Compression mode : Lossless
Stream size : 3.26 GiB (7%)
Title : TrueHD 7.1 Atmos
Language : English
Default : Yes
Forced : No
Original source medium : Blu-ray
Number of dynamic objects : 11
Bed channel count : 1 channel
Bed channel configuration : LFE

Audio #2
ID : 3
Format : DTS XLL
Format/Info : Digital Theater Systems
Commercial name : DTS-HD Master Audio
Codec ID : A_DTS
Duration : 1 h 55 min
Bit rate mode : Variable
Bit rate : 3 561 kb/s
Channel(s) : 8 channels
Channel layout : C L R LFE Lb Rb Lss Rss
Sampling rate : 48.0 kHz
Frame rate : 93.750 FPS (512 SPF)
Bit depth : 24 bits
Compression mode : Lossless
Stream size : 2.86 GiB (6%)
Title : DTS-HD MA 7.1
Language : English
Default : No
Forced : No

Audio #3
ID : 4
ID in the original source medium : 4352 (0x1100)
Format : AC-3
Format/Info : Audio Coding 3
Commercial name : Dolby Digital
Format settings : Dolby Surround EX
Codec ID : A_AC3
Duration : 1 h 55 min
Bit rate mode : Constant
Bit rate : 640 kb/s
Channel(s) : 6 channels
Channel layout : L R C LFE Ls Rs
Sampling rate : 48.0 kHz
Frame rate : 31.250 FPS (1536 SPF)
Compression mode : Lossy
Stream size : 526 MiB (1%)
Title : DD 5.1
Language : English
Service kind : Complete Main
Default : No
Forced : No
Original source medium : Blu-ray

Audio #4
ID : 5
ID in the original source medium : 4353 (0x1101)
Format : AC-3
Format/Info : Audio Coding 3
Commercial name : Dolby Digital
Codec ID : A_AC3
Duration : 1 h 55 min
Bit rate mode : Constant
Bit rate : 640 kb/s
Channel(s) : 6 channels
Channel layout : L R C LFE Ls Rs
Sampling rate : 48.0 kHz
Frame rate : 31.250 FPS (1536 SPF)
Compression mode : Lossy
Stream size : 526 MiB (1%)
Title : DD 5.1
Language : French
Service kind : Complete Main
Default : No
Forced : No
Original source medium : Blu-ray

Audio #5
ID : 6
ID in the original source medium : 4354 (0x1102)
Format : AC-3
Format/Info : Audio Coding 3
Commercial name : Dolby Digital
Codec ID : A_AC3
Duration : 1 h 55 min
Bit rate mode : Constant
Bit rate : 640 kb/s
Channel(s) : 6 channels
Channel layout : L R C LFE Ls Rs
Sampling rate : 48.0 kHz
Frame rate : 31.250 FPS (1536 SPF)
Compression mode : Lossy
Stream size : 526 MiB (1%)
Title : DD 5.1
Language : Spanish
Service kind : Complete Main
Default : No
Forced : No
Original source medium : Blu-ray

Audio #6
ID : 7
ID in the original source medium : 4355 (0x1103)
Format : AC-3
Format/Info : Audio Coding 3
Commercial name : Dolby Digital
Codec ID : A_AC3
Duration : 1 h 55 min
Bit rate mode : Constant
Bit rate : 640 kb/s
Channel(s) : 6 channels
Channel layout : L R C LFE Ls Rs
Sampling rate : 48.0 kHz
Frame rate : 31.250 FPS (1536 SPF)
Compression mode : Lossy
Stream size : 526 MiB (1%)
Title : DD 5.1
Language : English
Service kind : Complete Main
Default : No
Forced : No
Original source medium : Blu-ray

Text #1
ID : 8
Format : UTF-8
Codec ID : S_TEXT/UTF8
Codec ID/Info : UTF-8 Plain Text
Duration : 1 h 46 min
Bit rate : 33 b/s
Count of elements : 997
Stream size : 26.3 KiB (0%)
Language : English
Default : Yes
Forced : No

Text #2
ID : 9
Format : UTF-8
Codec ID : S_TEXT/UTF8
Codec ID/Info : UTF-8 Plain Text
Duration : 1 h 46 min
Bit rate : 36 b/s
Count of elements : 1099
Stream size : 28.2 KiB (0%)
Title : SDH
Language : English
Default : No
Forced : No

Text #3
ID : 10
ID in the original source medium : 4768 (0x12A0)
Format : PGS
Muxing mode : zlib
Codec ID : S_HDMV/PGS
Codec ID/Info : Picture based subtitle format used on BDs/HD-DVDs
Duration : 1 h 46 min
Bit rate : 20.8 kb/s
Count of elements : 2016
Stream size : 15.8 MiB (0%)
Language : English
Default : No
Forced : No
Original source medium : Blu-ray

Text #4
ID : 11
ID in the original source medium : 4769 (0x12A1)
Format : PGS
Muxing mode : zlib
Codec ID : S_HDMV/PGS
Codec ID/Info : Picture based subtitle format used on BDs/HD-DVDs
Duration : 1 h 46 min
Bit rate : 23.2 kb/s
Count of elements : 2226
Stream size : 17.7 MiB (0%)
Language : English
Default : No
Forced : No
Original source medium : Blu-ray

Text #5
ID : 12
ID in the original source medium : 4770 (0x12A2)
Format : PGS
Muxing mode : zlib
Codec ID : S_HDMV/PGS
Codec ID/Info : Picture based subtitle format used on BDs/HD-DVDs
Duration : 1 h 46 min
Bit rate : 19.5 kb/s
Count of elements : 2034
Stream size : 14.9 MiB (0%)
Language : French
Default : No
Forced : No
Original source medium : Blu-ray

Text #6
ID : 13
ID in the original source medium : 4770 (0x12A2)
Format : PGS
Muxing mode : zlib
Codec ID : S_HDMV/PGS
Codec ID/Info : Picture based subtitle format used on BDs/HD-DVDs
Duration : 1 h 10 min
Bit rate : 38 b/s
Count of elements : 6
Stream size : 20.1 KiB (0%)
Language : French
Default : No
Forced : No
Original source medium : Blu-ray

Text #7
ID : 14
ID in the original source medium : 4771 (0x12A3)
Format : PGS
Muxing mode : zlib
Codec ID : S_HDMV/PGS
Codec ID/Info : Picture based subtitle format used on BDs/HD-DVDs
Duration : 1 h 46 min
Bit rate : 18.3 kb/s
Count of elements : 1878
Stream size : 14.0 MiB (0%)
Language : Spanish
Default : No
Forced : No
Original source medium : Blu-ray

Text #8
ID : 15
ID in the original source medium : 4771 (0x12A3)
Format : PGS
Muxing mode : zlib
Codec ID : S_HDMV/PGS
Codec ID/Info : Picture based subtitle format used on BDs/HD-DVDs
Duration : 1 h 19 min
Bit rate : 55 b/s
Count of elements : 8
Stream size : 32.3 KiB (0%)
Language : Spanish
Default : No
Forced : No
Original source medium : Blu-ray

Menu
00:00:00.000 : en:Chapter 01
00:05:08.975 : en:Chapter 02
00:11:39.156 : en:Chapter 03
00:17:06.483 : en:Chapter 04
00:24:08.405 : en:Chapter 05
00:28:59.446 : en:Chapter 06
00:37:24.200 : en:Chapter 07
00:41:59.475 : en:Chapter 08
00:49:11.281 : en:Chapter 09
00:56:06.404 : en:Chapter 10
01:03:22.131 : en:Chapter 11
01:10:24.720 : en:Chapter 12
01:17:21.928 : en:Chapter 13
01:22:20.226 : en:Chapter 14
01:30:25.962 : en:Chapter 15
01:38:48.589 : en:Chapter 16
01:43:58.357 : en:Chapter 17
01:48:14.279 : en:Chapter 18

新种推荐使用qBittorrent、uTorrent等下载软件,有条件的推荐115更好的下载软件!

湮灭(48.41GB)Annihilation.2018.PROPER.2160p.BluRay.REMUX.HEVC.DTS-HD.MA.TrueHD.7.1.Atmos-FGT-【2160P蓝光REMUX】
游客,如果您要查看本帖隐藏内容请回复


其他版本待补...


4K QQ,爱心.gif

上一篇:关键协议 / The Proposition (2005) 4K蓝光[原盘+REMUX]版本下载
下一篇:堕落街 / Christiane F (1981) 4K蓝光[原盘+REMUX]版本下载
回复

使用道具 举报

62

主题

1596

帖子

4624

积分

4K家园VIP

Rank: 9Rank: 9Rank: 9

积分
4624
发表于 2022-4-11 17:16:35 | 显示全部楼层
4K家园资源最近貌似越来越多了
回复 支持 反对

使用道具 举报

0

主题

1

帖子

12

积分

新手上路

Rank: 1

积分
12
发表于 2022-4-12 14:03:14 | 显示全部楼层

частный seo специалист



Прелести рекламной анимации

Скучное преобразуется в развлекательное
Немного креатива – и даже невыразительный сюжет можно превратить в комичную зарисовку. А развеселившийся зритель – это потенциальный покупатель рекламируемого продукта.
На сегодняшний день анимационная графика остается одним из самых востребованных направлений контент-маркетинга. Она привлекает и одновременно информирует. В результате продавец успешно достигает своей цели – продвинуть и выгодно реализовать товар.

частный seo специалист

Source:

seoproffy.ru      
回复 支持 反对

使用道具 举报

0

主题

2

帖子

24

积分

4K家园VIP

Rank: 9Rank: 9Rank: 9

积分
24
发表于 2022-4-12 17:00:20 | 显示全部楼层
111111
回复

使用道具 举报

0

主题

1

帖子

10

积分

新手上路

Rank: 1

积分
10
发表于 2022-4-12 17:51:06 | 显示全部楼层
想要资源啊
回复 支持 反对

使用道具 举报

48

主题

1537

帖子

4421

积分

4K家园VIP

Rank: 9Rank: 9Rank: 9

积分
4421
发表于 2022-4-12 18:56:49 | 显示全部楼层
支持一下楼主,顶起来
回复 支持 反对

使用道具 举报

0

主题

1

帖子

6

积分

新手上路

Rank: 1

积分
6
发表于 2022-4-13 16:50:12 | 显示全部楼层
我想看看
回复

使用道具 举报

0

主题

111

帖子

774

积分

新手上路

Rank: 1

积分
774
发表于 2022-4-20 11:44:48 | 显示全部楼层
RE: 湮灭 / Annihilation (2018) 4K蓝光[原盘+REMUX]版本下载 [修改]
回复 支持 反对

使用道具 举报

0

主题

3

帖子

12

积分

新手上路

Rank: 1

积分
12
发表于 2022-4-23 10:43:19 | 显示全部楼层
    非常强的4k视频 期待 谢谢
回复 支持 反对

使用道具 举报

1

主题

1597

帖子

4399

积分

4K家园VIP

Rank: 9Rank: 9Rank: 9

积分
4399
发表于 2022-4-23 20:15:51 | 显示全部楼层
支持一下楼主,顶起来
回复 支持 反对

使用道具 举报

您需要登录后才可以回帖 登录 | 立即注册

本版积分规则

精彩图文
Archiver|手机版|TAG|Sitemap|新帖|专题|联系我们:邮箱: 4kjia.com@gmail.com   

4k家园   ©2019