[4K电影] 无限风暴 / Infinite Storm (2022) 4K高清版本下载

[复制链接]

1735

主题

1868

帖子

1万

积分

超级版主

Rank: 8Rank: 8

积分
14105
 楼主| 发表于 2022-4-13 09:47:19 | 显示全部楼层 |阅读模式

QQ图片20220413094509_副本.png

◎译  名 无限风暴
◎片  名 Infinite Storm
◎年  代 2022
◎产  地 英国 / 波兰 / 澳大利亚
◎类  别 剧情 / 惊悚
◎语  言 英语
◎上映日期 2022-03-25(美国)
◎IMDb评分  5.7/10 from 483 users
◎IMDb链接  https://www.imdb.com/title/tt14060232/
◎豆瓣评分 0/10 from 0 users
◎豆瓣链接 https://movie.douban.com/subject/35351430/
◎片  长 97分钟
◎导  演 玛高扎塔·施莫夫兹卡 Malgorzata Szumowska
◎编  剧 约书亚·罗林斯 Joshua Rollins / 帕姆·巴勒斯 Pam Bales
◎演  员 娜奥米·沃茨 Naomi Watts
       丹尼斯·欧哈拉 Denis O'Hare
       比利·豪尔 Billy Howle
       可可·萨姆纳 Coco Sumner
       帕克·索耶 Parker Sawyers
       约书亚·罗林斯 Joshua Rollins


◎简  介


  影片根据泰·加涅发表的的文章《高处:雪地里的脚印引发了一场温情救援》(High Places: Footprints i n the Snow Lead to an Emotional Rescue,暂译)改编,讲述了母亲、护士兼登山爱好者帕姆·贝尔斯的故事,当她独自跋涉华盛顿山,被暴风雪困住时,她遇到了陌生的登山者并为其展开了一场大胆的营救。
Video
ID : 1
Format : HEVC
Format/Info : High Efficiency Video Coding
Format profile : Main 10@L5@High
Codec ID : V_MPEGH/ISO/HEVC
Duration : 1 h 37 min
Bit rate : 11.9 Mb/s
Width : 3 836 pixels
Height : 1 604 pixels
Display aspect ratio : 2.40:1
Frame rate mode : Constant
Frame rate : 23.976 FPS
Color space : YUV
Chroma subsampling : 4:2:0
Bit depth : 10 bits
Bits/(Pixel*Frame) : 0.081
Stream size : 8.13 GiB (97%)
Language : English
Default : Yes
Forced : No
Color range : Limited
Color primaries : BT.709
Transfer characteristics : BT.709
Matrix coefficients : BT.709

Audio
ID : 2
Format : AC-3
Format/Info : Audio Coding 3
Commercial name : Dolby Digital
Codec ID : A_AC3
Duration : 1 h 37 min
Bit rate mode : Constant
Bit rate : 384 kb/s
Channel(s) : 6 channels
Channel layout : L R C LFE Ls Rs
Sampling rate : 48.0 kHz
Frame rate : 31.250 FPS (1536 SPF)
Compression mode : Lossy
Stream size : 268 MiB (3%)
Language : English
Service kind : Complete Main
Default : Yes
Forced : No

Text #1
ID : 3
Format : UTF-8
Codec ID : S_TEXT/UTF8
Codec ID/Info : UTF-8 Plain Text
Duration : 1 h 31 min
Bit rate : 24 b/s
Count of elements : 699
Stream size : 16.7 KiB (0%)
Title : SDH
Language : English
Default : No
Forced : No

Text #2
ID : 4
Format : UTF-8
Codec ID : S_TEXT/UTF8
Codec ID/Info : UTF-8 Plain Text
Duration : 1 h 27 min
Bit rate : 21 b/s
Count of elements : 522
Stream size : 13.8 KiB (0%)
Language : English
Default : No
Forced : No

Text #3
ID : 5
Format : UTF-8
Codec ID : S_TEXT/UTF8
Codec ID/Info : UTF-8 Plain Text
Duration : 1 h 35 min
Bit rate : 18 b/s
Count of elements : 519
Stream size : 12.7 KiB (0%)
Title : Latin American
Language : Spanish
Default : No
Forced : No
资源速度为零或资源敏感被和谐时,推荐使用qBittorrent等下载软件,有条件的推荐115更好的下载软件!

下载地址:



游客,如果您要查看本帖隐藏内容请回复







上一篇:世界末日 / This is the End (2013) 4K高清版本下载
下一篇:让他们说吧 (内封中字) / Let Them All Talk (2020) 4K高清版本下载
回复

使用道具 举报

1

主题

1359

帖子

3909

积分

4K家园VIP

Rank: 9Rank: 9Rank: 9

积分
3909
发表于 2022-4-13 09:47:24 | 显示全部楼层
楼下的接上
回复 支持 反对

使用道具 举报

0

主题

8230

帖子

1万

积分

4K家园VIP

Rank: 9Rank: 9Rank: 9

积分
18830
发表于 2022-4-13 10:14:38 | 显示全部楼层
太好啦&萬分感謝版主的無私發佈分享%
回复 支持 反对

使用道具 举报

1

主题

6

帖子

185

积分

4K家园VIP

Rank: 9Rank: 9Rank: 9

积分
185
发表于 2022-4-13 13:33:31 | 显示全部楼层
字幕?
回复

使用道具 举报

2

主题

234

帖子

3077

积分

中级会员

Rank: 4

积分
3077
发表于 2022-4-14 08:12:36 | 显示全部楼层
有中文字幕吗        
回复 支持 反对

使用道具 举报

2

主题

1347

帖子

4061

积分

4K家园VIP

Rank: 9Rank: 9Rank: 9

积分
4061
发表于 2022-4-14 15:09:32 | 显示全部楼层
感谢分享
回复 支持 反对

使用道具 举报

51

主题

1472

帖子

4320

积分

4K家园VIP

Rank: 9Rank: 9Rank: 9

积分
4320
发表于 2022-4-14 15:30:40 | 显示全部楼层
有4K版卡,下个看下
回复 支持 反对

使用道具 举报

2

主题

1456

帖子

4204

积分

4K家园VIP

Rank: 9Rank: 9Rank: 9

积分
4204
发表于 2022-4-15 13:22:41 | 显示全部楼层
呵呵,低调,低调!
回复 支持 反对

使用道具 举报

0

主题

1

帖子

6

积分

新手上路

Rank: 1

积分
6
发表于 2022-4-15 19:58:06 | 显示全部楼层
多谢了 收下4k
回复 支持 反对

使用道具 举报

0

主题

2

帖子

9

积分

新手上路

Rank: 1

积分
9
发表于 2022-4-15 21:53:52 | 显示全部楼层
have a see it
回复 支持 反对

使用道具 举报

您需要登录后才可以回帖 登录 | 立即注册

本版积分规则

精彩图文
Archiver|手机版|TAG|Sitemap|新帖|专题|联系我们:邮箱: 4kjia.com@gmail.com   

4k家园   ©2019