[4K电影] 让他们说吧 (内封中字) / Let Them All Talk (2020) 4K高清版本下载

[复制链接]

1723

主题

1856

帖子

1万

积分

超级版主

Rank: 8Rank: 8

积分
14024
 楼主| 发表于 2022-4-13 10:01:09 | 显示全部楼层 |阅读模式

QQ图片20220413095956_副本.png

◎译  名 让他们说吧 / 畅所欲言
◎片  名 Let Them All Talk
◎年  代 2020
◎产  地 美国
◎类  别 剧情 / 喜剧
◎语  言 英语
◎上映日期 2020-12-10(美国)
◎IMDb评分  5.7/10 from 483 users
◎IMDb链接  https://www.imdb.com/title/tt10808832/
◎豆瓣评分 6.5/10 (1501人评价)
◎豆瓣链接 https://movie.douban.com/subject/34797673/
◎片  长 113分钟
◎导  演 史蒂文·索德伯格 Steven Soderbergh
◎编  剧 黛博拉·艾森伯格 Deborah Eisenberg
◎演  员 梅丽尔·斯特里普 Meryl Streep
       嘉玛·陈 Gemma Chan
       黛安·韦斯特 Dianne Wiest
       坎迪斯·伯根 Candice Bergen
       卢卡斯·赫奇斯 Lucas Hedges
       汉娜·詹姆斯 Hannah James
       玛丽·凯瑟琳·歌瑞森 Mary Catherine Garrison
       丹尼尔·阿尔格兰特 Daniel Algrant
       大卫·西格尔 David Siegel
       克里斯托弗·菲茨杰拉德 Christopher Fitzgerald
       托马斯·纽曼 Thomas Newman
       史蒂文·索德伯格 Steven Soderbergh
       艾伦·米罗伊尼克 Ellen Mirojnick


◎简  介


  某知名小说家(斯特里普饰)要到英国去领奖,她的两位老朋友(坎迪斯·伯根和黛安·韦斯特饰)和侄子(卢卡斯·赫奇斯饰)与她一起乘船出行,在船上,大家掀起了一场充满回忆、遗憾和辩论的狂欢,她的侄子还跟她的助理(嘉玛·陈饰)培养了亲密关系。
Video
ID : 1
Format : HEVC
Format/Info : High Efficiency Video Coding
Format profile : Main 10@L5@High
HDR format : Dolby Vision, Version 1.0, dvhe.05.06, BL+RPU
Codec ID : dvhe
Codec ID/Info : High Efficiency Video Coding with Dolby Vision
Duration : 1 h 52 min
Bit rate : 14.4 Mb/s
Width : 3 840 pixels
Height : 1 600 pixels
Display aspect ratio : 2.40:1
Frame rate mode : Constant
Frame rate : 23.976 (24000/1001/189150) FPS
Color space : YUV
Chroma subsampling : 4:2:0
Bit depth : 10 bits
Bits/(Pixel*Frame) : 0.098
Stream size : 11.4 GiB (97%)
Default : Yes
Alternate group : 1
Encoded date : UTC 2022-04-12 12:16:29
Tagged date : UTC 2022-04-12 12:20:18
Codec configuration box : hvcC+dvcC

Audio
ID : 2
Format : AC-3
Format/Info : Audio Coding 3
Commercial name : Dolby Digital
Codec ID : ac-3
Duration : 1 h 52 min
Bit rate mode : Constant
Bit rate : 384 kb/s
Maximum bit rate : 406 kb/s
Channel(s) : 6 channels
Channel layout : L R C LFE Ls Rs
Sampling rate : 48.0 kHz
Frame rate : 31.250 FPS (1536 SPF)
Compression mode : Lossy
Stream size : 310 MiB (3%)
Title : English
Language : English
Service kind : Complete Main
Default : Yes
Alternate group : 1
Tagged date : UTC 2022-04-12 12:20:18

Text #1
ID : 3
Format : Timed Text
Codec ID : tx3g
Duration : 1 h 50 min
Bit rate mode : Variable
Bit rate : 93 b/s
Stream size : 74.6 KiB (0%)
Title : English
Language : English
Forced : No
Encoded date : UTC 2022-04-12 12:20:17
Tagged date : UTC 2022-04-12 12:20:18

Text #2
ID : 4
Format : Timed Text
Codec ID : tx3g
Duration : 1 h 52 min
Bit rate mode : Variable
Bit rate : 61 b/s
Stream size : 50.8 KiB (0%)
Title : 中文(简体)
Language : 中文
Forced : No
Encoded date : UTC 2022-04-12 12:20:17
Tagged date : UTC 2022-04-12 12:20:18


Text #3
ID : 5
Format : Timed Text
Codec ID : tx3g
Duration : 1 h 52 min
Bit rate mode : Variable
Bit rate : 59 b/s
Stream size : 48.5 KiB (0%)
Title : 中文(繁体)
Language : 中文
Forced : No
Encoded date : UTC 2022-04-12 12:20:17
Tagged date : UTC 2022-04-12 12:20:18

Text #4
ID : 6
Format : Timed Text
Codec ID : tx3g
Duration : 1 h 52 min
Bit rate mode : Variable
Bit rate : 85 b/s
Stream size : 70.3 KiB (0%)
Title : German
Language : German
Forced : No
Encoded date : UTC 2022-04-12 12:20:18
Tagged date : UTC 2022-04-12 12:20:18

Text #5
ID : 7
Format : Timed Text
Codec ID : tx3g
Duration : 1 h 49 min
Bit rate mode : Variable
Bit rate : 72 b/s
Stream size : 58.0 KiB (0%)
Title : Indonesian
Language : Indonesian
Forced : No
Encoded date : UTC 2022-04-12 12:20:18
Tagged date : UTC 2022-04-12 12:20:18

Text #6
ID : 8
Format : Timed Text
Codec ID : tx3g
Duration : 1 h 52 min
Bit rate mode : Variable
Bit rate : 70 b/s
Stream size : 57.5 KiB (0%)
Title : Italian
Language : Italian
Forced : No
Encoded date : UTC 2022-04-12 12:20:18
Tagged date : UTC 2022-04-12 12:20:18

Text #7
ID : 9
Format : Timed Text
Codec ID : tx3g
Duration : 1 h 52 min
Bit rate mode : Variable
Bit rate : 63 b/s
Stream size : 52.0 KiB (0%)
Title : Japanese
Language : Japanese
Forced : No
Encoded date : UTC 2022-04-12 12:20:18
Tagged date : UTC 2022-04-12 12:20:18

Text #8
ID : 10
Format : Timed Text
Codec ID : tx3g
Duration : 1 h 52 min
Bit rate mode : Variable
Bit rate : 66 b/s
Stream size : 54.2 KiB (0%)
Title : Spanish-EU
Language : Spanish
Forced : No
Encoded date : UTC 2022-04-12 12:20:18
Tagged date : UTC 2022-04-12 12:20:18
资源速度为零或资源敏感被和谐时,推荐使用qBittorrent等下载软件,有条件的推荐115更好的下载软件!

下载地址:



游客,如果您要查看本帖隐藏内容请回复

游客,如果您要查看本帖隐藏内容请回复

游客,如果您要查看本帖隐藏内容请回复

游客,如果您要查看本帖隐藏内容请回复





上一篇:无限风暴 / Infinite Storm (2022) 4K高清版本下载
下一篇:x / X (2022) 4K高清版本下载
回复

使用道具 举报

0

主题

1724

帖子

4686

积分

4K家园VIP

Rank: 9Rank: 9Rank: 9

积分
4686
发表于 2022-4-13 10:01:13 | 显示全部楼层
高手啊
回复 支持 反对

使用道具 举报

0

主题

8229

帖子

1万

积分

4K家园VIP

Rank: 9Rank: 9Rank: 9

积分
18818
发表于 2022-4-13 10:15:00 | 显示全部楼层
太好啦&萬分感謝版主的無私發佈分享%
回复 支持 反对

使用道具 举报

0

主题

344

帖子

2109

积分

注册会员

Rank: 2

积分
2109
发表于 2022-4-13 13:40:55 | 显示全部楼层
谢谢楼主分享
回复 支持 反对

使用道具 举报

0

主题

5

帖子

20

积分

新手上路

Rank: 1

积分
20
发表于 2022-4-13 23:09:20 来自手机 | 显示全部楼层
哈哈哈哈哈
回复 支持 反对

使用道具 举报

0

主题

5

帖子

20

积分

新手上路

Rank: 1

积分
20
发表于 2022-4-13 23:09:35 来自手机 | 显示全部楼层
哈哈哈哈哈哈哈
回复 支持 反对

使用道具 举报

0

主题

344

帖子

2109

积分

注册会员

Rank: 2

积分
2109
发表于 2022-4-14 11:07:14 | 显示全部楼层
萬分感謝版主的分享
回复 支持 反对

使用道具 举报

6

主题

1219

帖子

3683

积分

4K家园VIP

Rank: 9Rank: 9Rank: 9

积分
3683
发表于 2022-4-14 22:34:53 | 显示全部楼层
体验下4K版的
回复 支持 反对

使用道具 举报

1

主题

1374

帖子

4142

积分

4K家园VIP

Rank: 9Rank: 9Rank: 9

积分
4142
发表于 2022-4-16 10:23:48 | 显示全部楼层
好,很好,非常好!
回复 支持 反对

使用道具 举报

0

主题

1389

帖子

4029

积分

4K家园VIP

Rank: 9Rank: 9Rank: 9

积分
4029
发表于 2022-4-16 14:33:04 | 显示全部楼层
好帖必须得顶起
回复 支持 反对

使用道具 举报

您需要登录后才可以回帖 登录 | 立即注册

本版积分规则

精彩图文
Archiver|手机版|TAG|Sitemap|新帖|专题|联系我们:邮箱: 4kjia.com@gmail.com   

4k家园   ©2019