人生切割术 (内嵌中字) 第一季/全9集 (2022)/ 4K高清版本下载

[复制链接]

121

主题

140

帖子

1369

积分

版主

Rank: 7Rank: 7Rank: 7

积分
1369
 楼主| 发表于 2022-4-13 12:58:41 | 显示全部楼层 |阅读模式

p2785225757_副本.png

◎译  名 人生切割术 / 遣散费 / 离职
◎片  名 Severance
◎年  代 2022
◎产  地 美国
◎类  别 剧情 / 悬疑 / 惊悚
◎语  言 英语
◎上映日期 2022-02-18(美国)
◎IMDb评分  8.6/10 from 18799 users
◎IMDb链接  https://www.imdb.com/title/tt11280740/
◎豆瓣评分 9.0/10 from 14614 users
◎豆瓣链接 https://movie.douban.com/subject/34885342/
◎集  数 9
◎片  长 60分钟
◎导  演 本·斯蒂勒 Ben Stiller / 伊费·麦卡德尔 Aoife McArdle
◎编  剧 丹·埃里克森 Dan Erickson / 安德鲁·科尔维尔 Andrew Colville / 卡莉·德雷克 Kari Drake / Mohamad el Masri Mohamad el Masri / 安娜·欧阳·蒙赫 Anna Ouyang Moench / 阿曼达·奥弗顿 Amanda Overton / 魏宁·于 Wei-Ning Yu
◎演  员 亚当·斯科特 Adam Scott
       扎克·切利 Zach Cherry
       布丽特·洛薇尔 Britt Lower
       帕特丽夏·阿奎特 Patricia Arquette
       约翰·特托罗 John Turturro
       克里斯托弗·沃肯 Christopher Walken
       特拉梅尔·提尔曼 Tramell Tillman
       詹·塔洛克 Jen Tullock
       迪辰·拉克曼 Dichen Lachman
       迈克尔·切鲁斯 Michael Chernus
       迈克尔·昆普斯蒂 Michael Cumpsty
       尤尔·瓦斯克斯 Yul Vazquez
       马克·盖勒 Marc Geller
       妮基·米歇尔·詹姆斯 Nikki Michelle James
       Annie McNamara Annie McNamara
       Ethan Flower Ethan Flower
       桃乐丝·麦卡锡 Doris McCarthy
       茜妮·科尔亚历山大 Sydney Cole Alexander
       卡西迪·莱顿 Cassidy Layton
       萨哈尔·比比扬 Sahar Bibiyan
       丹·埃里克森 Dan Erickson


◎简  介


  本剧是一部职场惊悚剧,故事发生在希望将工作与生活的平衡提升至新水平的Lumen公司,一名有着黑暗过往的员工马克(斯科特饰)试图让自己重新振作起来。沃肯将饰演Lumen公司光学和设计部主管。剧集由丹·埃里克森撰写剧本,共10集。
Video
ID                             : 1
Format                         : HEVC
Format/Info                    : High Efficiency Video Coding
Format profile                 : Main 10@L5@High
HDR format                     : Dolby Vision, Version 1.0, dvhe.05.06, BL+RPU
Codec ID                       : dvhe
Codec ID/Info                  : High Efficiency Video Coding with Dolby Vision
Duration                       : 40 min 16 s
Bit rate                       : 24.6 Mb/s
Width                          : 3 840 pixels
Height                         : 1 608 pixels
Original height                : 1 606 pixels
Display aspect ratio           : 2.40:1
Original display aspect ratio  : 2.40:1
Frame rate mode                : Constant
Frame rate                     : 23.976 (24000/1001) FPS
Color space                    : YUV
Chroma subsampling             : 4:2:0
Bit depth                      : 10 bits
Bits/(Pixel*Frame)             : 0.166
Stream size                    : 6.92 GiB
Default                        : Yes
Alternate group                : 1
Encoded date                   : UTC 2022-04-08 13:27:47
Tagged date                    : UTC 2022-04-08 13:28:26
Codec configuration box        : hvcC+dvcC

Audio
ID                             : 2
Format                         : E-AC-3 JOC
Format/Info                    : Enhanced AC-3 with Joint Object Coding
Commercial name                : Dolby Digital Plus with Dolby Atmos
Codec ID                       : ec-3
Duration                       : 40 min 16 s
Bit rate mode                  : Constant
Bit rate                       : 768 kb/s
Maximum bit rate               : 811 kb/s
Channel(s)                     : 6 channels
Channel layout                 : L R C LFE Ls Rs
Sampling rate                  : 48.0 kHz
Frame rate                     : 31.250 FPS (1536 SPF)
Compression mode               : Lossy
Stream size                    : 221 MiB (3%)
Title                          : English
Language                       : English
Service kind                   : Complete Main
Default                        : Yes
Alternate group                : 1
Tagged date                    : UTC 2022-04-08 13:28:26
Complexity index               : Not present / 16
Number of dynamic objects      : 15
Bed channel count              : 1 channel
Bed channel configuration      : LFE

Text #1
ID                             : 3
Format                         : Timed Text
Codec ID                       : tx3g
Duration                       : 38 min 36 s
Bit rate mode                  : Variable
Bit rate                       : 55 b/s
Stream size                    : 15.7 KiB (0%)
Title                          : English
Language                       : English
Forced                         : No
Encoded date                   : UTC 2022-04-08 13:28:19
Tagged date                    : UTC 2022-04-08 13:28:26

Text #2
ID                             : 4
Format                         : Timed Text
Codec ID                       : tx3g
Duration                       : 38 min 40 s
Bit rate mode                  : Variable
Bit rate                       : 64 b/s
Stream size                    : 18.2 KiB (0%)
Title                          : English
Language                       : English
Forced                         : No
Encoded date                   : UTC 2022-04-08 13:28:19
Tagged date                    : UTC 2022-04-08 13:28:26

Text #3
ID                             : 5
Format                         : Timed Text
Codec ID                       : tx3g
Duration                       : 40 min 9 s
Bit rate mode                  : Variable
Bit rate                       : 71 b/s
Stream size                    : 20.8 KiB (0%)
Title                          : Arabic
Language                       : Arabic
Forced                         : No
Encoded date                   : UTC 2022-04-08 13:28:19
Tagged date                    : UTC 2022-04-08 13:28:26

Text #4
ID                             : 6
Format                         : Timed Text
Codec ID                       : tx3g
Duration                       : 40 min 9 s
Bit rate mode                  : Variable
Bit rate                       : 80 b/s
Stream size                    : 23.6 KiB (0%)
Title                          : Bulgarian
Language                       : Bulgarian
Forced                         : No
Encoded date                   : UTC 2022-04-08 13:28:19
Tagged date                    : UTC 2022-04-08 13:28:26

Text #5
ID                             : 7
Format                         : Timed Text
Codec ID                       : tx3g
Duration                       : 40 min 9 s
Bit rate mode                  : Variable
Bit rate                       : 51 b/s
Stream size                    : 15.0 KiB (0%)
Title                          : 中文(广东话)
Language                       : 中文
Forced                         : No
Encoded date                   : UTC 2022-04-08 13:28:19
Tagged date                    : UTC 2022-04-08 13:28:26

Text #6
ID                             : 8
Format                         : Timed Text
Codec ID                       : tx3g
Duration                       : 40 min 9 s
Bit rate mode                  : Variable
Bit rate                       : 52 b/s
Stream size                    : 15.2 KiB (0%)
Title                          : 中文(简体)
Language                       : 中文
Forced                         : No
Encoded date                   : UTC 2022-04-08 13:28:19
Tagged date                    : UTC 2022-04-08 13:28:26


Text #7
ID                             : 9
Format                         : Timed Text
Codec ID                       : tx3g
Duration                       : 40 min 9 s
Bit rate mode                  : Variable
Bit rate                       : 52 b/s
Stream size                    : 15.3 KiB (0%)
Title                          : 中文(繁体)
Language                       : 中文
Forced                         : No
Encoded date                   : UTC 2022-04-08 13:28:22
Tagged date                    : UTC 2022-04-08 13:28:26


Text #8
ID                             : 10
Format                         : Timed Text
Codec ID                       : tx3g
Duration                       : 40 min 9 s
Bit rate mode                  : Variable
Bit rate                       : 53 b/s
Stream size                    : 15.5 KiB (0%)
Title                          : Czech
Language                       : Czech
Forced                         : No
Encoded date                   : UTC 2022-04-08 13:28:22
Tagged date                    : UTC 2022-04-08 13:28:26

Text #9
ID                             : 11
Format                         : Timed Text
Codec ID                       : tx3g
Duration                       : 40 min 9 s
Bit rate mode                  : Variable
Bit rate                       : 54 b/s
Stream size                    : 15.8 KiB (0%)
Title                          : Danish
Language                       : Danish
Forced                         : No
Encoded date                   : UTC 2022-04-08 13:28:22
Tagged date                    : UTC 2022-04-08 13:28:26

Text #10
ID                             : 12
Format                         : Timed Text
Codec ID                       : tx3g
Duration                       : 40 min 9 s
Bit rate mode                  : Variable
Bit rate                       : 45 b/s
Stream size                    : 13.4 KiB (0%)
Title                          : Dutch
Language                       : Dutch
Forced                         : No
Encoded date                   : UTC 2022-04-08 13:28:22
Tagged date                    : UTC 2022-04-08 13:28:26

Text #11
ID                             : 13
Format                         : Timed Text
Codec ID                       : tx3g
Duration                       : 40 min 9 s
Bit rate mode                  : Variable
Bit rate                       : 52 b/s
Stream size                    : 15.3 KiB (0%)
Title                          : Estonian
Language                       : Estonian
Forced                         : No
Encoded date                   : UTC 2022-04-08 13:28:22
Tagged date                    : UTC 2022-04-08 13:28:26

Text #12
ID                             : 14
Format                         : Timed Text
Codec ID                       : tx3g
Duration                       : 40 min 9 s
Bit rate mode                  : Variable
Bit rate                       : 53 b/s
Stream size                    : 15.4 KiB (0%)
Title                          : Finnish
Language                       : Finnish
Forced                         : No
Encoded date                   : UTC 2022-04-08 13:28:22
Tagged date                    : UTC 2022-04-08 13:28:26

Text #13
ID                             : 15
Format                         : Timed Text
Codec ID                       : tx3g
Duration                       : 40 min 9 s
Bit rate mode                  : Variable
Bit rate                       : 51 b/s
Stream size                    : 14.9 KiB (0%)
Title                          : French
Language                       : French
Forced                         : No
Encoded date                   : UTC 2022-04-08 13:28:22
Tagged date                    : UTC 2022-04-08 13:28:26

Text #14
ID                             : 16
Format                         : Timed Text
Codec ID                       : tx3g
Duration                       : 40 min 9 s
Bit rate mode                  : Variable
Bit rate                       : 51 b/s
Stream size                    : 14.9 KiB (0%)
Title                          : French-CA
Language                       : French
Forced                         : No
Encoded date                   : UTC 2022-04-08 13:28:22
Tagged date                    : UTC 2022-04-08 13:28:26

Text #15
ID                             : 17
Format                         : Timed Text
Codec ID                       : tx3g
Duration                       : 40 min 9 s
Bit rate mode                  : Variable
Bit rate                       : 51 b/s
Stream size                    : 14.9 KiB (0%)
Title                          : German
Language                       : German
Forced                         : No
Encoded date                   : UTC 2022-04-08 13:28:22
Tagged date                    : UTC 2022-04-08 13:28:26

Text #16
ID                             : 18
Format                         : Timed Text
Codec ID                       : tx3g
Duration                       : 40 min 9 s
Bit rate mode                  : Variable
Bit rate                       : 88 b/s
Stream size                    : 25.8 KiB (0%)
Title                          : Greek
Language                       : Greek
Forced                         : No
Encoded date                   : UTC 2022-04-08 13:28:23
Tagged date                    : UTC 2022-04-08 13:28:26

Text #17
ID                             : 19
Format                         : Timed Text
Codec ID                       : tx3g
Duration                       : 40 min 9 s
Bit rate mode                  : Variable
Bit rate                       : 69 b/s
Stream size                    : 20.3 KiB (0%)
Title                          : Hebrew
Language                       : Hebrew
Forced                         : No
Encoded date                   : UTC 2022-04-08 13:28:23
Tagged date                    : UTC 2022-04-08 13:28:26

Text #18
ID                             : 20
Format                         : Timed Text
Codec ID                       : tx3g
Duration                       : 40 min 9 s
Bit rate mode                  : Variable
Bit rate                       : 138 b/s
Stream size                    : 40.5 KiB (0%)
Title                          : Hindi
Language                       : Hindi
Forced                         : No
Encoded date                   : UTC 2022-04-08 13:28:23
Tagged date                    : UTC 2022-04-08 13:28:26

Text #19
ID                             : 21
Format                         : Timed Text
Codec ID                       : tx3g
Duration                       : 40 min 9 s
Bit rate mode                  : Variable
Bit rate                       : 56 b/s
Stream size                    : 16.4 KiB (0%)
Title                          : Hungarian
Language                       : Hungarian
Forced                         : No
Encoded date                   : UTC 2022-04-08 13:28:23
Tagged date                    : UTC 2022-04-08 13:28:26

Text #20
ID                             : 22
Format                         : Timed Text
Codec ID                       : tx3g
Duration                       : 40 min 9 s
Bit rate mode                  : Variable
Bit rate                       : 56 b/s
Stream size                    : 16.6 KiB (0%)
Title                          : Indonesian
Language                       : Indonesian
Forced                         : No
Encoded date                   : UTC 2022-04-08 13:28:23
Tagged date                    : UTC 2022-04-08 13:28:26

Text #21
ID                             : 23
Format                         : Timed Text
Codec ID                       : tx3g
Duration                       : 40 min 9 s
Bit rate mode                  : Variable
Bit rate                       : 58 b/s
Stream size                    : 17.0 KiB (0%)
Title                          : Italian
Language                       : Italian
Forced                         : No
Encoded date                   : UTC 2022-04-08 13:28:25
Tagged date                    : UTC 2022-04-08 13:28:26

Text #22
ID                             : 24
Format                         : Timed Text
Codec ID                       : tx3g
Duration                       : 40 min 13 s
Bit rate mode                  : Variable
Bit rate                       : 46 b/s
Stream size                    : 13.5 KiB (0%)
Title                          : Japanese
Language                       : Japanese
Forced                         : No
Encoded date                   : UTC 2022-04-08 13:28:25
Tagged date                    : UTC 2022-04-08 13:28:26

Text #23
ID                             : 25
Format                         : Timed Text
Codec ID                       : tx3g
Duration                       : 40 min 9 s
Bit rate mode                  : Variable
Bit rate                       : 55 b/s
Stream size                    : 16.1 KiB (0%)
Title                          : Korean
Language                       : Korean
Forced                         : No
Encoded date                   : UTC 2022-04-08 13:28:25
Tagged date                    : UTC 2022-04-08 13:28:26

Text #24
ID                             : 26
Format                         : Timed Text
Codec ID                       : tx3g
Duration                       : 40 min 9 s
Bit rate mode                  : Variable
Bit rate                       : 59 b/s
Stream size                    : 17.4 KiB (0%)
Title                          : Latvian
Language                       : Latvian
Forced                         : No
Encoded date                   : UTC 2022-04-08 13:28:25
Tagged date                    : UTC 2022-04-08 13:28:26

Text #25
ID                             : 27
Format                         : Timed Text
Codec ID                       : tx3g
Duration                       : 40 min 9 s
Bit rate mode                  : Variable
Bit rate                       : 58 b/s
Stream size                    : 17.1 KiB (0%)
Title                          : Lithuanian
Language                       : Lithuanian
Forced                         : No
Encoded date                   : UTC 2022-04-08 13:28:25
Tagged date                    : UTC 2022-04-08 13:28:26

Text #26
ID                             : 28
Format                         : Timed Text
Codec ID                       : tx3g
Duration                       : 40 min 9 s
Bit rate mode                  : Variable
Bit rate                       : 56 b/s
Stream size                    : 16.3 KiB (0%)
Title                          : Malay
Language                       : Malay
Forced                         : No
Encoded date                   : UTC 2022-04-08 13:28:25
Tagged date                    : UTC 2022-04-08 13:28:26

Text #27
ID                             : 29
Format                         : Timed Text
Codec ID                       : tx3g
Duration                       : 40 min 9 s
Bit rate mode                  : Variable
Bit rate                       : 50 b/s
Stream size                    : 14.7 KiB (0%)
Title                          : Norwegian
Language                       : Norwegian
Forced                         : No
Encoded date                   : UTC 2022-04-08 13:28:25
Tagged date                    : UTC 2022-04-08 13:28:26

Text #28
ID                             : 30
Format                         : Timed Text
Codec ID                       : tx3g
Duration                       : 40 min 9 s
Bit rate mode                  : Variable
Bit rate                       : 52 b/s
Stream size                    : 15.2 KiB (0%)
Title                          : Polish
Language                       : Polish
Forced                         : No
Encoded date                   : UTC 2022-04-08 13:28:25
Tagged date                    : UTC 2022-04-08 13:28:26

Text #29
ID                             : 31
Format                         : Timed Text
Codec ID                       : tx3g
Duration                       : 40 min 9 s
Bit rate mode                  : Variable
Bit rate                       : 57 b/s
Stream size                    : 16.9 KiB (0%)
Title                          : Portuguese
Language                       : Portuguese
Forced                         : No
Encoded date                   : UTC 2022-04-08 13:28:25
Tagged date                    : UTC 2022-04-08 13:28:26

Text #30
ID                             : 32
Format                         : Timed Text
Codec ID                       : tx3g
Duration                       : 38 min 36 s
Bit rate mode                  : Variable
Bit rate                       : 59 b/s
Stream size                    : 16.6 KiB (0%)
Title                          : Portuguese-BR
Language                       : Portuguese
Forced                         : No
Encoded date                   : UTC 2022-04-08 13:28:25
Tagged date                    : UTC 2022-04-08 13:28:26

Text #31
ID                             : 33
Format                         : Timed Text
Codec ID                       : tx3g
Duration                       : 38 min 36 s
Bit rate mode                  : Variable
Bit rate                       : 84 b/s
Stream size                    : 23.8 KiB (0%)
Title                          : Russian
Language                       : Russian
Forced                         : No
Encoded date                   : UTC 2022-04-08 13:28:25
Tagged date                    : UTC 2022-04-08 13:28:26

Text #32
ID                             : 34
Format                         : Timed Text
Codec ID                       : tx3g
Duration                       : 40 min 9 s
Bit rate mode                  : Variable
Bit rate                       : 51 b/s
Stream size                    : 14.9 KiB (0%)
Title                          : Slovak
Language                       : Slovak
Forced                         : No
Encoded date                   : UTC 2022-04-08 13:28:25
Tagged date                    : UTC 2022-04-08 13:28:26

Text #33
ID                             : 35
Format                         : Timed Text
Codec ID                       : tx3g
Duration                       : 40 min 9 s
Bit rate mode                  : Variable
Bit rate                       : 47 b/s
Stream size                    : 13.9 KiB (0%)
Title                          : Slovenian
Language                       : Slovenian
Forced                         : No
Encoded date                   : UTC 2022-04-08 13:28:25
Tagged date                    : UTC 2022-04-08 13:28:26

Text #34
ID                             : 36
Format                         : Timed Text
Codec ID                       : tx3g
Duration                       : 38 min 36 s
Bit rate mode                  : Variable
Bit rate                       : 61 b/s
Stream size                    : 17.3 KiB (0%)
Title                          : Spanish
Language                       : Spanish
Forced                         : No
Encoded date                   : UTC 2022-04-08 13:28:25
Tagged date                    : UTC 2022-04-08 13:28:26

Text #35
ID                             : 37
Format                         : Timed Text
Codec ID                       : tx3g
Duration                       : 38 min 36 s
Bit rate mode                  : Variable
Bit rate                       : 58 b/s
Stream size                    : 16.3 KiB (0%)
Title                          : Spanish-EU
Language                       : Spanish
Forced                         : No
Encoded date                   : UTC 2022-04-08 13:28:25
Tagged date                    : UTC 2022-04-08 13:28:26

Text #36
ID                             : 38
Format                         : Timed Text
Codec ID                       : tx3g
Duration                       : 40 min 9 s
Bit rate mode                  : Variable
Bit rate                       : 49 b/s
Stream size                    : 14.5 KiB (0%)
Title                          : Swedish
Language                       : Swedish
Forced                         : No
Encoded date                   : UTC 2022-04-08 13:28:25
Tagged date                    : UTC 2022-04-08 13:28:26

Text #37
ID                             : 39
Format                         : Timed Text
Codec ID                       : tx3g
Duration                       : 40 min 9 s
Bit rate mode                  : Variable
Bit rate                       : 161 b/s
Stream size                    : 47.4 KiB (0%)
Title                          : Tamil
Language                       : Tamil
Forced                         : No
Encoded date                   : UTC 2022-04-08 13:28:25
Tagged date                    : UTC 2022-04-08 13:28:26

Text #38
ID                             : 40
Format                         : Timed Text
Codec ID                       : tx3g
Duration                       : 40 min 9 s
Bit rate mode                  : Variable
Bit rate                       : 146 b/s
Stream size                    : 43.0 KiB (0%)
Title                          : Telugu
Language                       : Telugu
Forced                         : No
Encoded date                   : UTC 2022-04-08 13:28:25
Tagged date                    : UTC 2022-04-08 13:28:26

Text #39
ID                             : 41
Format                         : Timed Text
Codec ID                       : tx3g
Duration                       : 40 min 9 s
Bit rate mode                  : Variable
Bit rate                       : 124 b/s
Stream size                    : 36.6 KiB (0%)
Title                          : Thai
Language                       : Thai
Forced                         : No
Encoded date                   : UTC 2022-04-08 13:28:25
Tagged date                    : UTC 2022-04-08 13:28:26

Text #40
ID                             : 42
Format                         : Timed Text
Codec ID                       : tx3g
Duration                       : 40 min 9 s
Bit rate mode                  : Variable
Bit rate                       : 55 b/s
Stream size                    : 16.3 KiB (0%)
Title                          : Turkish
Language                       : Turkish
Forced                         : No
Encoded date                   : UTC 2022-04-08 13:28:25
Tagged date                    : UTC 2022-04-08 13:28:26

Text #41
ID                             : 43
Format                         : Timed Text
Codec ID                       : tx3g
Duration                       : 40 min 9 s
Bit rate mode                  : Variable
Bit rate                       : 83 b/s
Stream size                    : 24.4 KiB (0%)
Title                          : Ukrainian
Language                       : Ukrainian
Forced                         : No
Encoded date                   : UTC 2022-04-08 13:28:25
Tagged date                    : UTC 2022-04-08 13:28:26

Text #42
ID                             : 44
Format                         : Timed Text
Codec ID                       : tx3g
Duration                       : 40 min 9 s
Bit rate mode                  : Variable
Bit rate                       : 68 b/s
Stream size                    : 19.9 KiB (0%)
Title                          : Vietnamese
Language                       : Vietnamese
Forced                         : No
Encoded date                   : UTC 2022-04-08 13:28:26
Tagged date                    : UTC 2022-04-08 13:28:26


下载地址:


游客,如果您要查看本帖隐藏内容请回复

游客,如果您要查看本帖隐藏内容请回复

游客,如果您要查看本帖隐藏内容请回复

游客,如果您要查看本帖隐藏内容请回复





上一篇:王朝 / Dynasties.UK 第二季/全4集 (2022)/ 4K高清版本下载
下一篇:超蓬勃:优步之战 第一季/全7集 (2022)/ 4K高清版本下载
回复

使用道具 举报

0

主题

1163

帖子

3503

积分

4K家园VIP

Rank: 9Rank: 9Rank: 9

积分
3503
发表于 2022-4-13 12:59:36 | 显示全部楼层
路过的帮顶
回复 支持 反对

使用道具 举报

0

主题

8229

帖子

1万

积分

4K家园VIP

Rank: 9Rank: 9Rank: 9

积分
18809
发表于 2022-4-13 13:26:08 | 显示全部楼层
太好啦&萬分感謝版主的無私發佈分享%
回复 支持 反对

使用道具 举报

51

主题

1524

帖子

4378

积分

4K家园VIP

Rank: 9Rank: 9Rank: 9

积分
4378
发表于 2022-4-13 15:13:56 | 显示全部楼层
LZ是天才,坚定完毕
回复 支持 反对

使用道具 举报

46

主题

1466

帖子

4234

积分

4K家园VIP

Rank: 9Rank: 9Rank: 9

积分
4234
发表于 2022-4-13 18:30:53 | 显示全部楼层
支持你哈...................................
回复 支持 反对

使用道具 举报

1

主题

1388

帖子

4000

积分

4K家园VIP

Rank: 9Rank: 9Rank: 9

积分
4000
发表于 2022-4-15 13:39:35 | 显示全部楼层
垃圾内容,路过为证。
回复 支持 反对

使用道具 举报

0

主题

1714

帖子

4750

积分

4K家园VIP

Rank: 9Rank: 9Rank: 9

积分
4750
发表于 2022-4-15 13:43:25 | 显示全部楼层
前排顶,很好!
回复 支持 反对

使用道具 举报

0

主题

15

帖子

161

积分

新手上路

Rank: 1

积分
161
发表于 2022-4-15 20:55:34 | 显示全部楼层
找到了,谢谢楼主
回复 支持 反对

使用道具 举报

0

主题

2

帖子

12

积分

新手上路

Rank: 1

积分
12
发表于 2022-5-6 15:38:42 | 显示全部楼层
给力啊 给力啊 找到了
回复 支持 反对

使用道具 举报

您需要登录后才可以回帖 登录 | 立即注册

本版积分规则

精彩图文
Archiver|手机版|TAG|Sitemap|新帖|专题|联系我们:邮箱: 4kjia.com@gmail.com   

4k家园   ©2019