冰川时代:斯克特的传说 (2022) 第一季/全6集/ 4K高清版本下载

[复制链接]

126

主题

145

帖子

1412

积分

版主

Rank: 7Rank: 7Rank: 7

积分
1412
 楼主| 发表于 2022-4-14 10:08:34 | 显示全部楼层 |阅读模式
p2871113191.webp_副本.jpg

◎译  名 冰川时代:斯克特的传说/冰原历险记:鼠奎特历险记(台)
◎片  名 Ice Age: Scrat Tales
◎年  代 2022
◎产  地 美国
◎类  别 喜剧/动画/家庭
◎语  言 英语
◎上映日期 2022-04-13(美国)
◎IMDb评分  7.9/10 from 112 users
◎IMDb链接  https://www.imdb.com/title/tt18302114/
◎豆瓣评分 8.4/10 from 77 users
◎豆瓣链接 https://douban.com/subject/35780755/
◎集  数 6
◎编  剧 詹姆斯·杨·杰克逊 James Young Jackson
◎主  演 克里斯·韦奇 Chris Wedge
        凯瑞·华格伦 Kari Wahlgren


◎简  介


  [冰川时代]衍生动画短片[冰川时代:斯克特的传说](Ice Age: Scrat Tales,暂译)将于4月13日直接上线Disney+。

Video
ID                             : 1
Format                         : HEVC
Format/Info                    : High Efficiency Video Coding
Format profile                 : Main 10@L5@High
HDR format                     : Dolby Vision, Version 1.0, dvhe.05.06, BL+RPU
Codec ID                       : dvhe
Codec ID/Info                  : High Efficiency Video Coding with Dolby Vision
Duration                       : 4 min 19 s
Bit rate                       : 15.1 Mb/s
Width                          : 3 840 pixels
Height                         : 2 160 pixels
Display aspect ratio           : 16:9
Frame rate mode                : Constant
Frame rate                     : 24.000 FPS
Color space                    : YUV
Chroma subsampling             : 4:2:0
Bit depth                      : 10 bits
Bits/(Pixel*Frame)             : 0.076
Stream size                    : 466 MiB (98%)
Default                        : Yes
Alternate group                : 1
Encoded date                   : UTC 2022-04-13 07:57:08
Tagged date                    : UTC 2022-04-13 07:57:09
Color range                    : Full
Codec configuration box        : hvcC+dvcC

Audio
ID                             : 2
Format                         : E-AC-3
Format/Info                    : Enhanced AC-3
Commercial name                : Dolby Digital Plus
Codec ID                       : ec-3
Duration                       : 4 min 19 s
Bit rate mode                  : Constant
Bit rate                       : 256 kb/s
Maximum bit rate               : 270 kb/s
Channel(s)                     : 6 channels
Channel layout                 : L R C LFE Ls Rs
Sampling rate                  : 48.0 kHz
Frame rate                     : 31.250 FPS (1536 SPF)
Compression mode               : Lossy
Stream size                    : 7.93 MiB (2%)
Title                          : English
Language                       : English
Service kind                   : Complete Main
Default                        : Yes
Alternate group                : 1
Tagged date                    : UTC 2022-04-13 07:57:09

Text
ID                             : 3
Format                         : Timed Text
Codec ID                       : tx3g
Duration                       : 3 min 43 s
Bit rate mode                  : Variable
Bit rate                       : 47 b/s
Stream size                    : 1.27 KiB (0%)
Title                          : English
Language                       : English
Forced                         : No
Encoded date                   : UTC 2022-04-13 07:57:09
Tagged date                    : UTC 2022-04-13 07:57:09

下载地址:

游客,如果您要查看本帖隐藏内容请回复

游客,如果您要查看本帖隐藏内容请回复

游客,如果您要查看本帖隐藏内容请回复








上一篇:梦魇绝镇 / From (2022) 第一季/全10集/ 4K高清版本下载
下一篇:都铎王朝的私生活 (2016) 第一季/全3集/ 4K高清版本下载
回复

使用道具 举报

2

主题

1647

帖子

4483

积分

4K家园VIP

Rank: 9Rank: 9Rank: 9

积分
4483
发表于 2022-4-14 10:09:00 | 显示全部楼层
支持支持再支持
回复 支持 反对

使用道具 举报

1

主题

1723

帖子

4779

积分

4K家园VIP

Rank: 9Rank: 9Rank: 9

积分
4779
发表于 2022-4-14 10:09:01 来自手机 | 显示全部楼层
楼猪V5啊
回复 支持 反对

使用道具 举报

0

主题

8

帖子

21

积分

新手上路

Rank: 1

积分
21
发表于 2022-4-18 19:47:13 | 显示全部楼层
都帮顶!大力支持
回复 支持 反对

使用道具 举报

0

主题

3

帖子

27

积分

新手上路

Rank: 1

积分
27
发表于 2022-4-19 01:36:28 来自手机 | 显示全部楼层
感谢楼主分享!
回复 支持 反对

使用道具 举报

0

主题

3

帖子

16

积分

新手上路

Rank: 1

积分
16
发表于 2022-4-28 16:41:51 | 显示全部楼层
感谢楼主分中心啊水电费大萨达所多
回复 支持 反对

使用道具 举报

0

主题

1

帖子

6

积分

新手上路

Rank: 1

积分
6
发表于 2022-5-3 21:22:50 | 显示全部楼层
支持支持
回复

使用道具 举报

5

主题

1695

帖子

4691

积分

4K家园VIP

Rank: 9Rank: 9Rank: 9

积分
4691
发表于 2022-5-12 17:13:43 | 显示全部楼层
好,很好,非常好!
回复 支持 反对

使用道具 举报

3

主题

1465

帖子

4249

积分

4K家园VIP

Rank: 9Rank: 9Rank: 9

积分
4249
发表于 前天 02:54 | 显示全部楼层
嘘,低调。
回复 支持 反对

使用道具 举报

您需要登录后才可以回帖 登录 | 立即注册

本版积分规则

精彩图文
Archiver|手机版|TAG|Sitemap|新帖|专题|联系我们:邮箱: 4kjia.com@gmail.com   

4k家园   ©2019