托勒密·格雷最后的日子 第一季/全6集 (2022)/ 4K高清版本下载

[复制链接]

130

主题

149

帖子

1459

积分

版主

Rank: 7Rank: 7Rank: 7

积分
1459
 楼主| 发表于 2022-4-14 10:49:58 | 显示全部楼层 |阅读模式
本帖最后由 最爱4K哟 于 2022-4-15 10:48 编辑

p2867752702_副本.png

◎译  名 托勒密·格雷最后的日子
◎片  名 The Last Days of Ptolemy Grey
◎年  代 2022
◎产  地 美国
◎类  别 剧情
◎语  言 英语
◎上映日期 2022-03-11(美国)
◎IMDb评分  7.8/10 from 1751 users
◎IMDb链接  https://www.imdb.com/title/tt13820498/
◎豆瓣评分 7.8/10 from 95 users
◎豆瓣链接 https://douban.com/subject/35290376/
◎集  数 6
◎编  剧 Walter Mosley Walter Mosley
◎主  演 塞缪尔·杰克逊 Samuel L. Jackson
       沃尔顿·戈金斯 Walton Goggins
       多米尼克·菲什巴克 Dominique Fishback
       阿·米切尔 Al Mitchell
       奥玛·本森·米勒 Omar Benson Miller
       辛希亚·卡耶·麦克威廉姆斯 Cynthia Kaye McWilliams
       达蒙·冈普顿 Damon Gupton
       玛莎·斯蒂芬妮·布莱克 Marsha Stephanie Blake
       莫瑞·金斯堡 Maury Ginsberg
       施奎塔·詹姆斯 Shiquita James
        Lorenzo Yearby
       罗伯特·廷斯利 Robert Tinsley



◎简  介


  一个91岁的男子,被家人和朋友甚至他自己所遗忘,即将深深陷入孤独和痴呆。而在有机会短暂重获记忆时,格雷身上发生了巨大的转变,他要利用自己宝贵的清明时间去揭开侄子的死的谜题,以及接受自己的过去。
Video
ID                             : 1
Format                         : HEVC
Format/Info                    : High Efficiency Video Coding
Format profile                 : Main 10@L5@High
HDR format                     : Dolby Vision, Version 1.0, dvhe.05.06, BL+RPU
Codec ID                       : dvhe
Codec ID/Info                  : High Efficiency Video Coding with Dolby Vision
Duration                       : 51 min 25 s
Bit rate                       : 24.8 Mb/s
Width                          : 3 840 pixels
Height                         : 2 080 pixels
Original height                : 2 076 pixels
Display aspect ratio           : 1.85:1
Original display aspect ratio  : 1.85:1
Frame rate mode                : Constant
Frame rate                     : 23.976 (24000/1001) FPS
Color space                    : YUV
Chroma subsampling             : 4:2:0
Bit depth                      : 10 bits
Bits/(Pixel*Frame)             : 0.130
Stream size                    : 8.92 GiB (97%)
Default                        : Yes
Alternate group                : 1
Encoded date                   : UTC 2022-04-08 13:12:14
Tagged date                    : UTC 2022-04-08 13:12:57
Codec configuration box        : hvcC+dvcC

Audio
ID                             : 2
Format                         : E-AC-3 JOC
Format/Info                    : Enhanced AC-3 with Joint Object Coding
Commercial name                : Dolby Digital Plus with Dolby Atmos
Codec ID                       : ec-3
Duration                       : 51 min 25 s
Bit rate mode                  : Constant
Bit rate                       : 768 kb/s
Maximum bit rate               : 811 kb/s
Channel(s)                     : 6 channels
Channel layout                 : L R C LFE Ls Rs
Sampling rate                  : 48.0 kHz
Frame rate                     : 31.250 FPS (1536 SPF)
Compression mode               : Lossy
Stream size                    : 282 MiB (3%)
Title                          : English
Language                       : English
Service kind                   : Complete Main
Default                        : Yes
Alternate group                : 1
Tagged date                    : UTC 2022-04-08 13:12:57
Complexity index               : Not present / 16
Number of dynamic objects      : 15
Bed channel count              : 1 channel
Bed channel configuration      : LFE

Text #1
ID                             : 3
Format                         : Timed Text
Codec ID                       : tx3g
Duration                       : 48 min 42 s
Bit rate mode                  : Variable
Bit rate                       : 84 b/s
Stream size                    : 30.0 KiB (0%)
Title                          : English
Language                       : English
Forced                         : No
Encoded date                   : UTC 2022-04-08 13:12:48
Tagged date                    : UTC 2022-04-08 13:12:57

Text #2
ID                             : 4
Format                         : Timed Text
Codec ID                       : tx3g
Duration                       : 48 min 35 s
Bit rate mode                  : Variable
Bit rate                       : 71 b/s
Stream size                    : 25.2 KiB (0%)
Title                          : English
Language                       : English
Forced                         : No
Encoded date                   : UTC 2022-04-08 13:12:48
Tagged date                    : UTC 2022-04-08 13:12:57

Text #3
ID                             : 5
Format                         : Timed Text
Codec ID                       : tx3g
Duration                       : 51 min 7 s
Bit rate mode                  : Variable
Bit rate                       : 87 b/s
Stream size                    : 32.4 KiB (0%)
Title                          : Arabic
Language                       : Arabic
Forced                         : No
Encoded date                   : UTC 2022-04-08 13:12:48
Tagged date                    : UTC 2022-04-08 13:12:57

Text #4
ID                             : 6
Format                         : Timed Text
Codec ID                       : tx3g
Duration                       : 51 min 7 s
Bit rate mode                  : Variable
Bit rate                       : 91 b/s
Stream size                    : 34.1 KiB (0%)
Title                          : Bulgarian
Language                       : Bulgarian
Forced                         : No
Encoded date                   : UTC 2022-04-08 13:12:48
Tagged date                    : UTC 2022-04-08 13:12:57

Text #5
ID                             : 7
Format                         : Timed Text
Codec ID                       : tx3g
Duration                       : 51 min 7 s
Bit rate mode                  : Variable
Bit rate                       : 59 b/s
Stream size                    : 22.0 KiB (0%)
Title                          : 中文(广东话)
Language                       : 中文
Forced                         : No
Encoded date                   : UTC 2022-04-08 13:12:52
Tagged date                    : UTC 2022-04-08 13:12:57

Text #6
ID                             : 8
Format                         : Timed Text
Codec ID                       : tx3g
Duration                       : 51 min 7 s
Bit rate mode                  : Variable
Bit rate                       : 59 b/s
Stream size                    : 22.1 KiB (0%)
Title                          : 中文(简体)
Language                       : 中文
Forced                         : No
Encoded date                   : UTC 2022-04-08 13:12:52
Tagged date                    : UTC 2022-04-08 13:12:57

Text #7
ID                             : 9
Format                         : Timed Text
Codec ID                       : tx3g
Duration                       : 51 min 7 s
Bit rate mode                  : Variable
Bit rate                       : 58 b/s
Stream size                    : 21.6 KiB (0%)
Title                          : 中文(繁体)
Language                       : 中文
Forced                         : No
Encoded date                   : UTC 2022-04-08 13:12:53
Tagged date                    : UTC 2022-04-08 13:12:57

Text #8
ID                             : 10
Format                         : Timed Text
Codec ID                       : tx3g
Duration                       : 51 min 7 s
Bit rate mode                  : Variable
Bit rate                       : 60 b/s
Stream size                    : 22.6 KiB (0%)
Title                          : Czech
Language                       : Czech
Forced                         : No
Encoded date                   : UTC 2022-04-08 13:12:53
Tagged date                    : UTC 2022-04-08 13:12:57

Text #9
ID                             : 11
Format                         : Timed Text
Codec ID                       : tx3g
Duration                       : 51 min 7 s
Bit rate mode                  : Variable
Bit rate                       : 58 b/s
Stream size                    : 21.6 KiB (0%)
Title                          : Danish
Language                       : Danish
Forced                         : No
Encoded date                   : UTC 2022-04-08 13:12:53
Tagged date                    : UTC 2022-04-08 13:12:57

Text #10
ID                             : 12
Format                         : Timed Text
Codec ID                       : tx3g
Duration                       : 51 min 7 s
Bit rate mode                  : Variable
Bit rate                       : 59 b/s
Stream size                    : 22.3 KiB (0%)
Title                          : Dutch
Language                       : Dutch
Forced                         : No
Encoded date                   : UTC 2022-04-08 13:12:53
Tagged date                    : UTC 2022-04-08 13:12:57

Text #11
ID                             : 13
Format                         : Timed Text
Codec ID                       : tx3g
Duration                       : 51 min 7 s
Bit rate mode                  : Variable
Bit rate                       : 63 b/s
Stream size                    : 23.6 KiB (0%)
Title                          : Estonian
Language                       : Estonian
Forced                         : No
Encoded date                   : UTC 2022-04-08 13:12:53
Tagged date                    : UTC 2022-04-08 13:12:57

Text #12
ID                             : 14
Format                         : Timed Text
Codec ID                       : tx3g
Duration                       : 51 min 7 s
Bit rate mode                  : Variable
Bit rate                       : 62 b/s
Stream size                    : 23.1 KiB (0%)
Title                          : Finnish
Language                       : Finnish
Forced                         : No
Encoded date                   : UTC 2022-04-08 13:12:53
Tagged date                    : UTC 2022-04-08 13:12:57

Text #13
ID                             : 15
Format                         : Timed Text
Codec ID                       : tx3g
Duration                       : 51 min 8 s
Bit rate mode                  : Variable
Bit rate                       : 62 b/s
Stream size                    : 23.1 KiB (0%)
Title                          : French
Language                       : French
Forced                         : No
Encoded date                   : UTC 2022-04-08 13:12:53
Tagged date                    : UTC 2022-04-08 13:12:57

Text #14
ID                             : 16
Format                         : Timed Text
Codec ID                       : tx3g
Duration                       : 51 min 8 s
Bit rate mode                  : Variable
Bit rate                       : 62 b/s
Stream size                    : 23.1 KiB (0%)
Title                          : French-CA
Language                       : French
Forced                         : No
Encoded date                   : UTC 2022-04-08 13:12:53
Tagged date                    : UTC 2022-04-08 13:12:57

Text #15
ID                             : 17
Format                         : Timed Text
Codec ID                       : tx3g
Duration                       : 51 min 24 s
Bit rate mode                  : Variable
Bit rate                       : 74 b/s
Stream size                    : 27.9 KiB (0%)
Title                          : German
Language                       : German
Forced                         : No
Encoded date                   : UTC 2022-04-08 13:12:53
Tagged date                    : UTC 2022-04-08 13:12:57

Text #16
ID                             : 18
Format                         : Timed Text
Codec ID                       : tx3g
Duration                       : 51 min 7 s
Bit rate mode                  : Variable
Bit rate                       : 108 b/s
Stream size                    : 40.4 KiB (0%)
Title                          : Greek
Language                       : Greek
Forced                         : No
Encoded date                   : UTC 2022-04-08 13:12:53
Tagged date                    : UTC 2022-04-08 13:12:57

Text #17
ID                             : 19
Format                         : Timed Text
Codec ID                       : tx3g
Duration                       : 51 min 7 s
Bit rate mode                  : Variable
Bit rate                       : 85 b/s
Stream size                    : 31.8 KiB (0%)
Title                          : Hebrew
Language                       : Hebrew
Forced                         : No
Encoded date                   : UTC 2022-04-08 13:12:53
Tagged date                    : UTC 2022-04-08 13:12:57

Text #18
ID                             : 20
Format                         : Timed Text
Codec ID                       : tx3g
Duration                       : 51 min 7 s
Bit rate mode                  : Variable
Bit rate                       : 152 b/s
Stream size                    : 56.8 KiB (0%)
Title                          : Hindi
Language                       : Hindi
Forced                         : No
Encoded date                   : UTC 2022-04-08 13:12:54
Tagged date                    : UTC 2022-04-08 13:12:57

Text #19
ID                             : 21
Format                         : Timed Text
Codec ID                       : tx3g
Duration                       : 51 min 7 s
Bit rate mode                  : Variable
Bit rate                       : 64 b/s
Stream size                    : 23.9 KiB (0%)
Title                          : Hungarian
Language                       : Hungarian
Forced                         : No
Encoded date                   : UTC 2022-04-08 13:12:54
Tagged date                    : UTC 2022-04-08 13:12:57

Text #20
ID                             : 22
Format                         : Timed Text
Codec ID                       : tx3g
Duration                       : 51 min 7 s
Bit rate mode                  : Variable
Bit rate                       : 65 b/s
Stream size                    : 24.4 KiB (0%)
Title                          : Indonesian
Language                       : Indonesian
Forced                         : No
Encoded date                   : UTC 2022-04-08 13:12:54
Tagged date                    : UTC 2022-04-08 13:12:57

Text #21
ID                             : 23
Format                         : Timed Text
Codec ID                       : tx3g
Duration                       : 51 min 24 s
Bit rate mode                  : Variable
Bit rate                       : 69 b/s
Stream size                    : 25.8 KiB (0%)
Title                          : Italian
Language                       : Italian
Forced                         : No
Encoded date                   : UTC 2022-04-08 13:12:54
Tagged date                    : UTC 2022-04-08 13:12:57

Text #22
ID                             : 24
Format                         : Timed Text
Codec ID                       : tx3g
Duration                       : 51 min 24 s
Bit rate mode                  : Variable
Bit rate                       : 57 b/s
Stream size                    : 21.3 KiB (0%)
Title                          : Japanese
Language                       : Japanese
Forced                         : No
Encoded date                   : UTC 2022-04-08 13:12:54
Tagged date                    : UTC 2022-04-08 13:12:57

Text #23
ID                             : 25
Format                         : Timed Text
Codec ID                       : tx3g
Duration                       : 51 min 7 s
Bit rate mode                  : Variable
Bit rate                       : 70 b/s
Stream size                    : 26.1 KiB (0%)
Title                          : Korean
Language                       : Korean
Forced                         : No
Encoded date                   : UTC 2022-04-08 13:12:56
Tagged date                    : UTC 2022-04-08 13:12:57

Text #24
ID                             : 26
Format                         : Timed Text
Codec ID                       : tx3g
Duration                       : 51 min 7 s
Bit rate mode                  : Variable
Bit rate                       : 69 b/s
Stream size                    : 25.8 KiB (0%)
Title                          : Latvian
Language                       : Latvian
Forced                         : No
Encoded date                   : UTC 2022-04-08 13:12:56
Tagged date                    : UTC 2022-04-08 13:12:57

Text #25
ID                             : 27
Format                         : Timed Text
Codec ID                       : tx3g
Duration                       : 51 min 7 s
Bit rate mode                  : Variable
Bit rate                       : 66 b/s
Stream size                    : 24.8 KiB (0%)
Title                          : Lithuanian
Language                       : Lithuanian
Forced                         : No
Encoded date                   : UTC 2022-04-08 13:12:56
Tagged date                    : UTC 2022-04-08 13:12:57

Text #26
ID                             : 28
Format                         : Timed Text
Codec ID                       : tx3g
Duration                       : 51 min 7 s
Bit rate mode                  : Variable
Bit rate                       : 66 b/s
Stream size                    : 24.9 KiB (0%)
Title                          : Malay
Language                       : Malay
Forced                         : No
Encoded date                   : UTC 2022-04-08 13:12:56
Tagged date                    : UTC 2022-04-08 13:12:57

Text #27
ID                             : 29
Format                         : Timed Text
Codec ID                       : tx3g
Duration                       : 51 min 7 s
Bit rate mode                  : Variable
Bit rate                       : 64 b/s
Stream size                    : 24.0 KiB (0%)
Title                          : Norwegian
Language                       : Norwegian
Forced                         : No
Encoded date                   : UTC 2022-04-08 13:12:56
Tagged date                    : UTC 2022-04-08 13:12:57

Text #28
ID                             : 30
Format                         : Timed Text
Codec ID                       : tx3g
Duration                       : 51 min 7 s
Bit rate mode                  : Variable
Bit rate                       : 65 b/s
Stream size                    : 24.4 KiB (0%)
Title                          : Polish
Language                       : Polish
Forced                         : No
Encoded date                   : UTC 2022-04-08 13:12:56
Tagged date                    : UTC 2022-04-08 13:12:57

Text #29
ID                             : 31
Format                         : Timed Text
Codec ID                       : tx3g
Duration                       : 51 min 7 s
Bit rate mode                  : Variable
Bit rate                       : 67 b/s
Stream size                    : 25.0 KiB (0%)
Title                          : Portuguese
Language                       : Portuguese
Forced                         : No
Encoded date                   : UTC 2022-04-08 13:12:56
Tagged date                    : UTC 2022-04-08 13:12:57

Text #30
ID                             : 32
Format                         : Timed Text
Codec ID                       : tx3g
Duration                       : 51 min 7 s
Bit rate mode                  : Variable
Bit rate                       : 63 b/s
Stream size                    : 23.7 KiB (0%)
Title                          : Portuguese-BR
Language                       : Portuguese
Forced                         : No
Encoded date                   : UTC 2022-04-08 13:12:56
Tagged date                    : UTC 2022-04-08 13:12:57

Text #31
ID                             : 33
Format                         : Timed Text
Codec ID                       : tx3g
Duration                       : 51 min 24 s
Bit rate mode                  : Variable
Bit rate                       : 95 b/s
Stream size                    : 35.9 KiB (0%)
Title                          : Russian
Language                       : Russian
Forced                         : No
Encoded date                   : UTC 2022-04-08 13:12:56
Tagged date                    : UTC 2022-04-08 13:12:57

Text #32
ID                             : 34
Format                         : Timed Text
Codec ID                       : tx3g
Duration                       : 51 min 7 s
Bit rate mode                  : Variable
Bit rate                       : 64 b/s
Stream size                    : 23.9 KiB (0%)
Title                          : Slovak
Language                       : Slovak
Forced                         : No
Encoded date                   : UTC 2022-04-08 13:12:56
Tagged date                    : UTC 2022-04-08 13:12:57

Text #33
ID                             : 35
Format                         : Timed Text
Codec ID                       : tx3g
Duration                       : 51 min 7 s
Bit rate mode                  : Variable
Bit rate                       : 57 b/s
Stream size                    : 21.4 KiB (0%)
Title                          : Slovenian
Language                       : Slovenian
Forced                         : No
Encoded date                   : UTC 2022-04-08 13:12:56
Tagged date                    : UTC 2022-04-08 13:12:57

Text #34
ID                             : 36
Format                         : Timed Text
Codec ID                       : tx3g
Duration                       : 51 min 7 s
Bit rate mode                  : Variable
Bit rate                       : 68 b/s
Stream size                    : 25.5 KiB (0%)
Title                          : Spanish
Language                       : Spanish
Forced                         : No
Encoded date                   : UTC 2022-04-08 13:12:56
Tagged date                    : UTC 2022-04-08 13:12:57

Text #35
ID                             : 37
Format                         : Timed Text
Codec ID                       : tx3g
Duration                       : 51 min 24 s
Bit rate mode                  : Variable
Bit rate                       : 68 b/s
Stream size                    : 25.7 KiB (0%)
Title                          : Spanish-EU
Language                       : Spanish
Forced                         : No
Encoded date                   : UTC 2022-04-08 13:12:56
Tagged date                    : UTC 2022-04-08 13:12:57

Text #36
ID                             : 38
Format                         : Timed Text
Codec ID                       : tx3g
Duration                       : 51 min 7 s
Bit rate mode                  : Variable
Bit rate                       : 65 b/s
Stream size                    : 24.4 KiB (0%)
Title                          : Swedish
Language                       : Swedish
Forced                         : No
Encoded date                   : UTC 2022-04-08 13:12:56
Tagged date                    : UTC 2022-04-08 13:12:57

Text #37
ID                             : 39
Format                         : Timed Text
Codec ID                       : tx3g
Duration                       : 51 min 7 s
Bit rate mode                  : Variable
Bit rate                       : 188 b/s
Stream size                    : 70.4 KiB (0%)
Title                          : Tamil
Language                       : Tamil
Forced                         : No
Encoded date                   : UTC 2022-04-08 13:12:57
Tagged date                    : UTC 2022-04-08 13:12:57

Text #38
ID                             : 40
Format                         : Timed Text
Codec ID                       : tx3g
Duration                       : 51 min 7 s
Bit rate mode                  : Variable
Bit rate                       : 176 b/s
Stream size                    : 65.8 KiB (0%)
Title                          : Telugu
Language                       : Telugu
Forced                         : No
Encoded date                   : UTC 2022-04-08 13:12:57
Tagged date                    : UTC 2022-04-08 13:12:57

Text #39
ID                             : 41
Format                         : Timed Text
Codec ID                       : tx3g
Duration                       : 51 min 7 s
Bit rate mode                  : Variable
Bit rate                       : 130 b/s
Stream size                    : 48.6 KiB (0%)
Title                          : Thai
Language                       : Thai
Forced                         : No
Encoded date                   : UTC 2022-04-08 13:12:57
Tagged date                    : UTC 2022-04-08 13:12:57

Text #40
ID                             : 42
Format                         : Timed Text
Codec ID                       : tx3g
Duration                       : 51 min 7 s
Bit rate mode                  : Variable
Bit rate                       : 67 b/s
Stream size                    : 25.1 KiB (0%)
Title                          : Turkish
Language                       : Turkish
Forced                         : No
Encoded date                   : UTC 2022-04-08 13:12:57
Tagged date                    : UTC 2022-04-08 13:12:57

Text #41
ID                             : 43
Format                         : Timed Text
Codec ID                       : tx3g
Duration                       : 51 min 7 s
Bit rate mode                  : Variable
Bit rate                       : 96 b/s
Stream size                    : 35.9 KiB (0%)
Title                          : Ukrainian
Language                       : Ukrainian
Forced                         : No
Encoded date                   : UTC 2022-04-08 13:12:57
Tagged date                    : UTC 2022-04-08 13:12:57

Text #42
ID                             : 44
Format                         : Timed Text
Codec ID                       : tx3g
Duration                       : 51 min 7 s
Bit rate mode                  : Variable
Bit rate                       : 82 b/s
Stream size                    : 30.8 KiB (0%)
Title                          : Vietnamese
Language                       : Vietnamese
Forced                         : No
Encoded date                   : UTC 2022-04-08 13:12:57
Tagged date                    : UTC 2022-04-08 13:12:57

下载地址:

游客,如果您要查看本帖隐藏内容请回复

游客,如果您要查看本帖隐藏内容请回复




上一篇:BBC 印象派 绘画与革命 (2011) 第一季/全4集/ 4K高清版本下载
下一篇:松果和小马/Pinecone & Pony 第一季/全8集 (2022)/ 4K高清版本下载
回复

使用道具 举报

2

主题

1386

帖子

4182

积分

4K家园VIP

Rank: 9Rank: 9Rank: 9

积分
4182
发表于 2022-4-14 10:50:10 | 显示全部楼层
呵呵,低调,低调!
回复 支持 反对

使用道具 举报

3

主题

1332

帖子

4022

积分

4K家园VIP

Rank: 9Rank: 9Rank: 9

积分
4022
发表于 2022-4-15 05:04:44 | 显示全部楼层
在撸一遍。。。
回复 支持 反对

使用道具 举报

0

主题

1714

帖子

4750

积分

4K家园VIP

Rank: 9Rank: 9Rank: 9

积分
4750
发表于 2022-4-18 15:22:05 | 显示全部楼层
撸过
回复 支持 反对

使用道具 举报

30

主题

1219

帖子

3635

积分

4K家园VIP

Rank: 9Rank: 9Rank: 9

积分
3635
发表于 2022-4-19 07:44:42 | 显示全部楼层
楼主呀,,,您太有才了。。。
回复 支持 反对

使用道具 举报

2

主题

1424

帖子

4110

积分

中级会员

Rank: 4

积分
4110
发表于 2022-4-21 14:33:00 | 显示全部楼层
围观 围观 沙发在哪里!!!
回复 支持 反对

使用道具 举报

您需要登录后才可以回帖 登录 | 立即注册

本版积分规则

精彩图文
Archiver|手机版|TAG|Sitemap|新帖|专题|联系我们:邮箱: 4kjia.com@gmail.com   

4k家园   ©2019