[4K电影] x / X (2022) 4K高清版本下载

[复制链接]

1733

主题

1866

帖子

1万

积分

超级版主

Rank: 8Rank: 8

积分
14095
 楼主| 发表于 2022-4-14 17:18:15 | 显示全部楼层 |阅读模式
本帖最后由 最爱4K哟 于 2022-4-14 18:02 编辑

QQ图片20220414171556_副本.png

◎译  名 X
◎片  名 X
◎年  代 2022
◎产  地 美国
◎类  别 恐怖
◎语  言 英语
◎上映日期 2022-03-13(西南偏南电影节)/2022-03-18(美国)
◎IMDb评分  7.3/10 from 11465 users
◎IMDb链接  https://www.imdb.com/title/tt13560574/
◎豆瓣评分 6.8/10 from 451 users
◎豆瓣链接 https://movie.douban.com/subject/35240920/
◎导  演 缇·威斯特 Ti West
◎编  剧 缇·威斯特 Ti West
◎主  演 米娅·高斯 Mia Goth
       珍娜·奥尔特加 Jenna Ortega
       布兰特妮·斯诺 Brittany Snow
       卡迪小子 Kid Cudi
       马丁·亨德森 Martin Henderson
       欧文·坎贝尔 Owen Campbell
       史蒂芬·乌瑞 Stephen Ure
       詹姆斯·盖林 James Gaylyn
       西蒙·普拉斯特 Simon Prast
       吉奥夫·多兰 Geoff Dolan
       马修·塞维尔 Matthew Saville
       布莱恩妮·斯基林顿 Bryony Skillington

◎简  介

  1979年,一群年轻的电影制作人开始在德克萨斯州农村拍摄一部Adult影片,但遇到了一对诡异的老夫妻……
Video
ID                             : 1
Format                         : HEVC
Format/Info                    : High Efficiency Video Coding
Format profile                 : Main 10@L5@High
HDR format                     : Dolby Vision, Version 1.0, dvhe.05.06, BL+RPU
Codec ID                       : dvhe
Codec ID/Info                  : High Efficiency Video Coding with Dolby Vision
Duration                       : 1 h 46 min
Bit rate                       : 24.5 Mb/s
Width                          : 3 840 pixels
Height                         : 2 016 pixels
Original height                : 2 012 pixels
Display aspect ratio           : 1.905
Original display aspect ratio  : 1.909
Frame rate mode                : Constant
Frame rate                     : 23.976 (24000/1001) FPS
Color space                    : YUV
Chroma subsampling             : 4:2:0
Bit depth                      : 10 bits
Bits/(Pixel*Frame)             : 0.132
Stream size                    : 18.2 GiB (97%)
Default                        : Yes
Alternate group                : 1
Encoded date                   : UTC 2022-04-14 07:01:53
Tagged date                    : UTC 2022-04-14 07:05:38
Codec configuration box        : hvcC+dvcC

Audio
ID                             : 2
Format                         : E-AC-3 JOC
Format/Info                    : Enhanced AC-3 with Joint Object Coding
Commercial name                : Dolby Digital Plus with Dolby Atmos
Codec ID                       : ec-3
Duration                       : 1 h 46 min
Bit rate mode                  : Constant
Bit rate                       : 768 kb/s
Maximum bit rate               : 811 kb/s
Channel(s)                     : 6 channels
Channel layout                 : L R C LFE Ls Rs
Sampling rate                  : 48.0 kHz
Frame rate                     : 31.250 FPS (1536 SPF)
Compression mode               : Lossy
Stream size                    : 584 MiB (3%)
Title                          : English
Language                       : English
Service kind                   : Complete Main
Default                        : Yes
Alternate group                : 1
Tagged date                    : UTC 2022-04-14 07:05:38
Complexity index               : Not present / 16
Number of dynamic objects      : 15
Bed channel count              : 1 channel
Bed channel configuration      : LFE

Text #1
ID                             : 3
Format                         : Timed Text
Codec ID                       : tx3g
Duration                       : 1 h 40 min
Bit rate mode                  : Variable
Bit rate                       : 51 b/s
Stream size                    : 37.3 KiB (0%)
Title                          : English
Language                       : English
Forced                         : No
Encoded date                   : UTC 2022-04-14 07:05:38
Tagged date                    : UTC 2022-04-14 07:05:38

Text #2
ID                             : 4
Format                         : Timed Text
Codec ID                       : tx3g
Duration                       : 1 h 40 min
Bit rate mode                  : Variable
Bit rate                       : 42 b/s
Stream size                    : 31.2 KiB (0%)
Title                          : English
Language                       : English
Forced                         : No
Encoded date                   : UTC 2022-04-14 07:05:38
Tagged date                    : UTC 2022-04-14 07:05:38

资源速度为零或资源敏感被和谐时,推荐使用qBittorrent等下载软件,有条件的推荐115更好的下载软件!

下载地址:


游客,如果您要查看本帖隐藏内容请回复

游客,如果您要查看本帖隐藏内容请回复

游客,如果您要查看本帖隐藏内容请回复







上一篇:让他们说吧 (内封中字) / Let Them All Talk (2020) 4K高清版本下载
下一篇:探寻鲸之音 (内封简体中字) / Fathom (2021) 4K高清版本下载
回复

使用道具 举报

3

主题

1368

帖子

4122

积分

4K家园VIP

Rank: 9Rank: 9Rank: 9

积分
4122
发表于 2022-4-14 17:18:20 来自手机 | 显示全部楼层
路过 帮顶 嘿嘿
回复 支持 反对

使用道具 举报

48

主题

1543

帖子

4453

积分

4K家园VIP

Rank: 9Rank: 9Rank: 9

积分
4453
发表于 2022-4-14 18:35:33 | 显示全部楼层
多谢楼主分享
回复 支持 反对

使用道具 举报

0

主题

1

帖子

6

积分

新手上路

Rank: 1

积分
6
发表于 2022-4-14 18:41:14 | 显示全部楼层
dddddddddddddd
回复 支持 反对

使用道具 举报

0

主题

1724

帖子

4686

积分

4K家园VIP

Rank: 9Rank: 9Rank: 9

积分
4686
发表于 2022-4-14 19:32:09 来自手机 | 显示全部楼层
为了三千积分!
回复 支持 反对

使用道具 举报

0

主题

2

帖子

9

积分

新手上路

Rank: 1

积分
9
发表于 2022-4-14 23:14:26 | 显示全部楼层
谢谢楼主
回复

使用道具 举报

1

主题

91

帖子

3185

积分

中级会员

Rank: 4

积分
3185
发表于 2022-4-14 23:18:34 | 显示全部楼层
谢谢楼主分享
回复 支持 反对

使用道具 举报

51

主题

1400

帖子

4032

积分

4K家园VIP

Rank: 9Rank: 9Rank: 9

积分
4032
发表于 2022-4-15 00:07:37 | 显示全部楼层
啊啊啊啊啊啊啊啊啊啊啊
回复 支持 反对

使用道具 举报

44

主题

1522

帖子

4384

积分

4K家园VIP

Rank: 9Rank: 9Rank: 9

积分
4384
发表于 2022-4-15 01:47:15 | 显示全部楼层
多发些资源啊
回复 支持 反对

使用道具 举报

0

主题

8

帖子

591

积分

新手上路

Rank: 1

积分
591
发表于 2022-4-15 07:00:07 | 显示全部楼层
多谢楼主分享
回复 支持 反对

使用道具 举报

您需要登录后才可以回帖 登录 | 立即注册

本版积分规则

精彩图文
Archiver|手机版|TAG|Sitemap|新帖|专题|联系我们:邮箱: 4kjia.com@gmail.com   

4k家园   ©2019