咆哮 / Roar 第一季/全8集 (2022)/ 4K高清版本下载

[复制链接]

主题

帖子

0

积分

超级版主

Rank: 8Rank: 8

积分
0
 楼主| 发表于 2022-4-16 15:02:09 | 显示全部楼层 |阅读模式
本帖最后由 叽里呱啦 于 2022-4-17 16:02 编辑

p2870354278_副本.png

◎译  名 咆哮 第一季
◎片  名 Roar Season 1
◎年  代 2022
◎产  地 美国
◎类  别 剧情/喜剧
◎语  言 英语
◎上映日期 2022-04-15(美国)
◎IMDb评分  5.2/10 from 186 users
◎IMDb链接  https://www.imdb.com/title/tt18830366/
◎豆瓣评分 /10 from 0 users
◎豆瓣链接 https://douban.com/subject/35382944/
◎集  数 8
◎片  长 30分钟
◎编  剧 莉兹·弗拉希夫 Liz Flahive / 卡莉·门奇 Carly Mensch / 西西莉亚·埃亨 Cecelia Ahern
◎主  演 妮可·基德曼 Nicole Kidman
       梅里特·韦弗 Merritt Wever
       爱丽森·布里 Alison Brie
       辛西娅·艾莉佛 Cynthia Erivo
       伊萨·雷 Issa Rae
       贝蒂·吉尔平 Betty Gilpin
       梅拉·沙尔 Meera Syal
       菲韦尔·斯图尔特 Fivel Stewart
       卡拉·海沃德 Kara Hayward
       达娜·德洛伦佐 Dana DeLorenzo
       P·J·伯恩 P.J. Byrne
       弗雷德·格兰迪 Fred Grandy
       梅勒妮·海恩斯 Melanie Haynes
        Brandan Davis
       伯纳德·怀特 Bernard White
       格雷格·宾克利 Gregg Binkley
       爱迪威·布朗 Adwin Brown
        Michael James
       马尔科姆·鲍文 Malcolm Bowen
       迈克尔·维拉尔 Michael Villar
       谢鹤群 Ho-Kwan Tse
       隆·戈万 Lon Gowan


◎简  介


  本剧基于Cecelia Ahern所著短篇小说,每个故事都从一个独特的女性视角讲述,探索自己生活中与众不同、荒谬的矛盾和问题,涵盖了各种各样的流派,共8集,每集半小时。
Video
ID                             : 1
Format                         : HEVC
Format/Info                    : High Efficiency Video Coding
Format profile                 : Main 10@L5@High
HDR format                     : Dolby Vision, Version 1.0, dvhe.05.06, BL+RPU
Codec ID                       : dvhe
Codec ID/Info                  : High Efficiency Video Coding with Dolby Vision
Duration                       : 30 min 11 s
Bit rate                       : 24.8 Mb/s
Width                          : 3 840 pixels
Height                         : 1 920 pixels
Display aspect ratio           : 2.000
Frame rate mode                : Constant
Frame rate                     : 23.976 (24000/1001) FPS
Color space                    : YUV
Chroma subsampling             : 4:2:0
Bit depth                      : 10 bits
Bits/(Pixel*Frame)             : 0.140
Stream size                    : 5.24 GiB
Default                        : Yes
Alternate group                : 1
Encoded date                   : UTC 2022-04-15 04:08:11
Tagged date                    : UTC 2022-04-15 04:08:31
Codec configuration box        : hvcC+dvcC

Audio
ID                             : 2
Format                         : E-AC-3 JOC
Format/Info                    : Enhanced AC-3 with Joint Object Coding
Commercial name                : Dolby Digital Plus with Dolby Atmos
Codec ID                       : ec-3
Duration                       : 30 min 11 s
Bit rate mode                  : Constant
Bit rate                       : 768 kb/s
Maximum bit rate               : 811 kb/s
Channel(s)                     : 6 channels
Channel layout                 : L R C LFE Ls Rs
Sampling rate                  : 48.0 kHz
Frame rate                     : 31.250 FPS (1536 SPF)
Compression mode               : Lossy
Stream size                    : 166 MiB (5%)
Title                          : English
Language                       : English
Service kind                   : Complete Main
Default                        : Yes
Alternate group                : 1
Tagged date                    : UTC 2022-04-15 04:08:31
Complexity index               : Not present / 16
Number of dynamic objects      : 15
Bed channel count              : 1 channel
Bed channel configuration      : LFE

Text #1
ID                             : 3
Format                         : Timed Text
Codec ID                       : tx3g
Duration                       : 28 min 39 s
Bit rate mode                  : Variable
Bit rate                       : 67 b/s
Stream size                    : 14.1 KiB (0%)
Title                          : English
Language                       : English
Forced                         : No
Encoded date                   : UTC 2022-04-15 04:08:29
Tagged date                    : UTC 2022-04-15 04:08:31

Text #2
ID                             : 4
Format                         : Timed Text
Codec ID                       : tx3g
Duration                       : 30 min 4 s
Bit rate mode                  : Variable
Bit rate                       : 88 b/s
Stream size                    : 19.3 KiB (0%)
Title                          : Arabic
Language                       : Arabic
Forced                         : No
Encoded date                   : UTC 2022-04-15 04:08:29
Tagged date                    : UTC 2022-04-15 04:08:31

Text #3
ID                             : 5
Format                         : Timed Text
Codec ID                       : tx3g
Duration                       : 30 min 4 s
Bit rate mode                  : Variable
Bit rate                       : 90 b/s
Stream size                    : 19.8 KiB (0%)
Title                          : Bulgarian
Language                       : Bulgarian
Forced                         : No
Encoded date                   : UTC 2022-04-15 04:08:29
Tagged date                    : UTC 2022-04-15 04:08:31

Text #4
ID                             : 6
Format                         : Timed Text
Codec ID                       : tx3g
Duration                       : 30 min 4 s
Bit rate mode                  : Variable
Bit rate                       : 62 b/s
Stream size                    : 13.6 KiB (0%)
Title                          : 中文(广东话)
Language                       : 中文
Forced                         : No
Encoded date                   : UTC 2022-04-15 04:08:29
Tagged date                    : UTC 2022-04-15 04:08:31

Text #5
ID                             : 7
Format                         : Timed Text
Codec ID                       : tx3g
Duration                       : 30 min 4 s
Bit rate mode                  : Variable
Bit rate                       : 60 b/s
Stream size                    : 13.3 KiB (0%)
Title                          : 中文(简体)
Language                       : 中文
Forced                         : No
Encoded date                   : UTC 2022-04-15 04:08:29
Tagged date                    : UTC 2022-04-15 04:08:31

Text #6
ID                             : 8
Format                         : Timed Text
Codec ID                       : tx3g
Duration                       : 30 min 4 s
Bit rate mode                  : Variable
Bit rate                       : 63 b/s
Stream size                    : 13.8 KiB (0%)
Title                          : 中文(繁体)
Language                       : 中文
Forced                         : No
Encoded date                   : UTC 2022-04-15 04:08:29
Tagged date                    : UTC 2022-04-15 04:08:31


Text #7
ID                             : 9
Format                         : Timed Text
Codec ID                       : tx3g
Duration                       : 30 min 4 s
Bit rate mode                  : Variable
Bit rate                       : 58 b/s
Stream size                    : 12.8 KiB (0%)
Title                          : Czech
Language                       : Czech
Forced                         : No
Encoded date                   : UTC 2022-04-15 04:08:29
Tagged date                    : UTC 2022-04-15 04:08:31

Text #8
ID                             : 10
Format                         : Timed Text
Codec ID                       : tx3g
Duration                       : 30 min 4 s
Bit rate mode                  : Variable
Bit rate                       : 58 b/s
Stream size                    : 12.7 KiB (0%)
Title                          : Danish
Language                       : Danish
Forced                         : No
Encoded date                   : UTC 2022-04-15 04:08:29
Tagged date                    : UTC 2022-04-15 04:08:31

Text #9
ID                             : 11
Format                         : Timed Text
Codec ID                       : tx3g
Duration                       : 30 min 4 s
Bit rate mode                  : Variable
Bit rate                       : 57 b/s
Stream size                    : 12.5 KiB (0%)
Title                          : Dutch
Language                       : Dutch
Forced                         : No
Encoded date                   : UTC 2022-04-15 04:08:29
Tagged date                    : UTC 2022-04-15 04:08:31

Text #10
ID                             : 12
Format                         : Timed Text
Codec ID                       : tx3g
Duration                       : 30 min 4 s
Bit rate mode                  : Variable
Bit rate                       : 59 b/s
Stream size                    : 13.0 KiB (0%)
Title                          : Estonian
Language                       : Estonian
Forced                         : No
Encoded date                   : UTC 2022-04-15 04:08:29
Tagged date                    : UTC 2022-04-15 04:08:31

Text #11
ID                             : 13
Format                         : Timed Text
Codec ID                       : tx3g
Duration                       : 30 min 4 s
Bit rate mode                  : Variable
Bit rate                       : 61 b/s
Stream size                    : 13.4 KiB (0%)
Title                          : Finnish
Language                       : Finnish
Forced                         : No
Encoded date                   : UTC 2022-04-15 04:08:29
Tagged date                    : UTC 2022-04-15 04:08:31

Text #12
ID                             : 14
Format                         : Timed Text
Codec ID                       : tx3g
Duration                       : 29 min 13 s
Bit rate mode                  : Variable
Bit rate                       : 59 b/s
Stream size                    : 12.6 KiB (0%)
Title                          : French
Language                       : French
Forced                         : No
Encoded date                   : UTC 2022-04-15 04:08:29
Tagged date                    : UTC 2022-04-15 04:08:31

Text #13
ID                             : 15
Format                         : Timed Text
Codec ID                       : tx3g
Duration                       : 29 min 13 s
Bit rate mode                  : Variable
Bit rate                       : 59 b/s
Stream size                    : 12.6 KiB (0%)
Title                          : French
Language                       : French
Forced                         : No
Encoded date                   : UTC 2022-04-15 04:08:29
Tagged date                    : UTC 2022-04-15 04:08:31

Text #14
ID                             : 16
Format                         : Timed Text
Codec ID                       : tx3g
Duration                       : 30 min 2 s
Bit rate mode                  : Variable
Bit rate                       : 69 b/s
Stream size                    : 15.1 KiB (0%)
Title                          : German
Language                       : German
Forced                         : No
Encoded date                   : UTC 2022-04-15 04:08:29
Tagged date                    : UTC 2022-04-15 04:08:31

Text #15
ID                             : 17
Format                         : Timed Text
Codec ID                       : tx3g
Duration                       : 30 min 4 s
Bit rate mode                  : Variable
Bit rate                       : 105 b/s
Stream size                    : 23.1 KiB (0%)
Title                          : Greek
Language                       : Greek
Forced                         : No
Encoded date                   : UTC 2022-04-15 04:08:29
Tagged date                    : UTC 2022-04-15 04:08:31

Text #16
ID                             : 18
Format                         : Timed Text
Codec ID                       : tx3g
Duration                       : 30 min 4 s
Bit rate mode                  : Variable
Bit rate                       : 87 b/s
Stream size                    : 19.2 KiB (0%)
Title                          : Hebrew
Language                       : Hebrew
Forced                         : No
Encoded date                   : UTC 2022-04-15 04:08:29
Tagged date                    : UTC 2022-04-15 04:08:31

Text #17
ID                             : 19
Format                         : Timed Text
Codec ID                       : tx3g
Duration                       : 30 min 4 s
Bit rate mode                  : Variable
Bit rate                       : 163 b/s
Stream size                    : 35.8 KiB (0%)
Title                          : Hindi
Language                       : Hindi
Forced                         : No
Encoded date                   : UTC 2022-04-15 04:08:30
Tagged date                    : UTC 2022-04-15 04:08:31

Text #18
ID                             : 20
Format                         : Timed Text
Codec ID                       : tx3g
Duration                       : 30 min 4 s
Bit rate mode                  : Variable
Bit rate                       : 61 b/s
Stream size                    : 13.4 KiB (0%)
Title                          : Hungarian
Language                       : Hungarian
Forced                         : No
Encoded date                   : UTC 2022-04-15 04:08:30
Tagged date                    : UTC 2022-04-15 04:08:31

Text #19
ID                             : 21
Format                         : Timed Text
Codec ID                       : tx3g
Duration                       : 30 min 4 s
Bit rate mode                  : Variable
Bit rate                       : 66 b/s
Stream size                    : 14.5 KiB (0%)
Title                          : Indonesian
Language                       : Indonesian
Forced                         : No
Encoded date                   : UTC 2022-04-15 04:08:30
Tagged date                    : UTC 2022-04-15 04:08:31

Text #20
ID                             : 22
Format                         : Timed Text
Codec ID                       : tx3g
Duration                       : 30 min 2 s
Bit rate mode                  : Variable
Bit rate                       : 64 b/s
Stream size                    : 14.1 KiB (0%)
Title                          : Italian
Language                       : Italian
Forced                         : No
Encoded date                   : UTC 2022-04-15 04:08:30
Tagged date                    : UTC 2022-04-15 04:08:31

Text #21
ID                             : 23
Format                         : Timed Text
Codec ID                       : tx3g
Duration                       : 30 min 10 s
Bit rate mode                  : Variable
Bit rate                       : 53 b/s
Stream size                    : 11.8 KiB (0%)
Title                          : Japanese
Language                       : Japanese
Forced                         : No
Encoded date                   : UTC 2022-04-15 04:08:30
Tagged date                    : UTC 2022-04-15 04:08:31

Text #22
ID                             : 24
Format                         : Timed Text
Codec ID                       : tx3g
Duration                       : 30 min 4 s
Bit rate mode                  : Variable
Bit rate                       : 73 b/s
Stream size                    : 16.0 KiB (0%)
Title                          : Korean
Language                       : Korean
Forced                         : No
Encoded date                   : UTC 2022-04-15 04:08:30
Tagged date                    : UTC 2022-04-15 04:08:31

Text #23
ID                             : 25
Format                         : Timed Text
Codec ID                       : tx3g
Duration                       : 30 min 4 s
Bit rate mode                  : Variable
Bit rate                       : 65 b/s
Stream size                    : 14.3 KiB (0%)
Title                          : Latvian
Language                       : Latvian
Forced                         : No
Encoded date                   : UTC 2022-04-15 04:08:30
Tagged date                    : UTC 2022-04-15 04:08:31

Text #24
ID                             : 26
Format                         : Timed Text
Codec ID                       : tx3g
Duration                       : 30 min 4 s
Bit rate mode                  : Variable
Bit rate                       : 66 b/s
Stream size                    : 14.5 KiB (0%)
Title                          : Lithuanian
Language                       : Lithuanian
Forced                         : No
Encoded date                   : UTC 2022-04-15 04:08:30
Tagged date                    : UTC 2022-04-15 04:08:31

Text #25
ID                             : 27
Format                         : Timed Text
Codec ID                       : tx3g
Duration                       : 30 min 4 s
Bit rate mode                  : Variable
Bit rate                       : 64 b/s
Stream size                    : 14.1 KiB (0%)
Title                          : Malay
Language                       : Malay
Forced                         : No
Encoded date                   : UTC 2022-04-15 04:08:30
Tagged date                    : UTC 2022-04-15 04:08:31

Text #26
ID                             : 28
Format                         : Timed Text
Codec ID                       : tx3g
Duration                       : 30 min 4 s
Bit rate mode                  : Variable
Bit rate                       : 55 b/s
Stream size                    : 12.1 KiB (0%)
Title                          : Norwegian
Language                       : Norwegian
Forced                         : No
Encoded date                   : UTC 2022-04-15 04:08:30
Tagged date                    : UTC 2022-04-15 04:08:31

Text #27
ID                             : 29
Format                         : Timed Text
Codec ID                       : tx3g
Duration                       : 30 min 4 s
Bit rate mode                  : Variable
Bit rate                       : 59 b/s
Stream size                    : 13.0 KiB (0%)
Title                          : Polish
Language                       : Polish
Forced                         : No
Encoded date                   : UTC 2022-04-15 04:08:30
Tagged date                    : UTC 2022-04-15 04:08:31

Text #28
ID                             : 30
Format                         : Timed Text
Codec ID                       : tx3g
Duration                       : 30 min 4 s
Bit rate mode                  : Variable
Bit rate                       : 67 b/s
Stream size                    : 14.8 KiB (0%)
Title                          : Portuguese
Language                       : Portuguese
Forced                         : No
Encoded date                   : UTC 2022-04-15 04:08:30
Tagged date                    : UTC 2022-04-15 04:08:31

Text #29
ID                             : 31
Format                         : Timed Text
Codec ID                       : tx3g
Duration                       : 30 min 4 s
Bit rate mode                  : Variable
Bit rate                       : 59 b/s
Stream size                    : 13.0 KiB (0%)
Title                          : Portuguese
Language                       : Portuguese
Forced                         : No
Encoded date                   : UTC 2022-04-15 04:08:30
Tagged date                    : UTC 2022-04-15 04:08:31

Text #30
ID                             : 32
Format                         : Timed Text
Codec ID                       : tx3g
Duration                       : 30 min 4 s
Bit rate mode                  : Variable
Bit rate                       : 96 b/s
Stream size                    : 21.1 KiB (0%)
Title                          : Russian
Language                       : Russian
Forced                         : No
Encoded date                   : UTC 2022-04-15 04:08:30
Tagged date                    : UTC 2022-04-15 04:08:31

Text #31
ID                             : 33
Format                         : Timed Text
Codec ID                       : tx3g
Duration                       : 30 min 4 s
Bit rate mode                  : Variable
Bit rate                       : 61 b/s
Stream size                    : 13.4 KiB (0%)
Title                          : Slovak
Language                       : Slovak
Forced                         : No
Encoded date                   : UTC 2022-04-15 04:08:30
Tagged date                    : UTC 2022-04-15 04:08:31

Text #32
ID                             : 34
Format                         : Timed Text
Codec ID                       : tx3g
Duration                       : 30 min 4 s
Bit rate mode                  : Variable
Bit rate                       : 54 b/s
Stream size                    : 11.9 KiB (0%)
Title                          : Slovenian
Language                       : Slovenian
Forced                         : No
Encoded date                   : UTC 2022-04-15 04:08:30
Tagged date                    : UTC 2022-04-15 04:08:31

Text #33
ID                             : 35
Format                         : Timed Text
Codec ID                       : tx3g
Duration                       : 30 min 4 s
Bit rate mode                  : Variable
Bit rate                       : 65 b/s
Stream size                    : 14.4 KiB (0%)
Title                          : Spanish
Language                       : Spanish
Forced                         : No
Encoded date                   : UTC 2022-04-15 04:08:30
Tagged date                    : UTC 2022-04-15 04:08:31

Text #34
ID                             : 36
Format                         : Timed Text
Codec ID                       : tx3g
Duration                       : 30 min 4 s
Bit rate mode                  : Variable
Bit rate                       : 66 b/s
Stream size                    : 14.6 KiB (0%)
Title                          : Spanish-EU
Language                       : Spanish
Forced                         : No
Encoded date                   : UTC 2022-04-15 04:08:30
Tagged date                    : UTC 2022-04-15 04:08:31

Text #35
ID                             : 37
Format                         : Timed Text
Codec ID                       : tx3g
Duration                       : 30 min 4 s
Bit rate mode                  : Variable
Bit rate                       : 62 b/s
Stream size                    : 13.7 KiB (0%)
Title                          : Swedish
Language                       : Swedish
Forced                         : No
Encoded date                   : UTC 2022-04-15 04:08:30
Tagged date                    : UTC 2022-04-15 04:08:31

Text #36
ID                             : 38
Format                         : Timed Text
Codec ID                       : tx3g
Duration                       : 30 min 4 s
Bit rate mode                  : Variable
Bit rate                       : 195 b/s
Stream size                    : 43.0 KiB (0%)
Title                          : Tamil
Language                       : Tamil
Forced                         : No
Encoded date                   : UTC 2022-04-15 04:08:30
Tagged date                    : UTC 2022-04-15 04:08:31

Text #37
ID                             : 39
Format                         : Timed Text
Codec ID                       : tx3g
Duration                       : 30 min 4 s
Bit rate mode                  : Variable
Bit rate                       : 172 b/s
Stream size                    : 37.8 KiB (0%)
Title                          : Telugu
Language                       : Telugu
Forced                         : No
Encoded date                   : UTC 2022-04-15 04:08:30
Tagged date                    : UTC 2022-04-15 04:08:31

Text #38
ID                             : 40
Format                         : Timed Text
Codec ID                       : tx3g
Duration                       : 30 min 4 s
Bit rate mode                  : Variable
Bit rate                       : 154 b/s
Stream size                    : 33.9 KiB (0%)
Title                          : Thai
Language                       : Thai
Forced                         : No
Encoded date                   : UTC 2022-04-15 04:08:31
Tagged date                    : UTC 2022-04-15 04:08:31

Text #39
ID                             : 41
Format                         : Timed Text
Codec ID                       : tx3g
Duration                       : 30 min 4 s
Bit rate mode                  : Variable
Bit rate                       : 65 b/s
Stream size                    : 14.3 KiB (0%)
Title                          : Turkish
Language                       : Turkish
Forced                         : No
Encoded date                   : UTC 2022-04-15 04:08:31
Tagged date                    : UTC 2022-04-15 04:08:31

Text #40
ID                             : 42
Format                         : Timed Text
Codec ID                       : tx3g
Duration                       : 30 min 4 s
Bit rate mode                  : Variable
Bit rate                       : 95 b/s
Stream size                    : 21.0 KiB (0%)
Title                          : Ukrainian
Language                       : Ukrainian
Forced                         : No
Encoded date                   : UTC 2022-04-15 04:08:31
Tagged date                    : UTC 2022-04-15 04:08:31

Text #41
ID                             : 43
Format                         : Timed Text
Codec ID                       : tx3g
Duration                       : 30 min 4 s
Bit rate mode                  : Variable
Bit rate                       : 84 b/s
Stream size                    : 18.5 KiB (0%)
Title                          : Vietnamese
Language                       : Vietnamese
Forced                         : No
Encoded date                   : UTC 2022-04-15 04:08:31
Tagged date                    : UTC 2022-04-15 04:08:31

下载地址:

游客,如果您要查看本帖隐藏内容请回复

游客,如果您要查看本帖隐藏内容请回复

游客,如果您要查看本帖隐藏内容请回复

游客,如果您要查看本帖隐藏内容请回复






上一篇:松果和小马/Pinecone & Pony 第一季/全8集 (2022)/ 4K高清版本下载
下一篇:权欲第四章:武力 (2022) 第一季/全10集 (2022)4K高清版本下载
回复

使用道具 举报

2

主题

1464

帖子

4410

积分

4K家园VIP

Rank: 9Rank: 9Rank: 9

积分
4410
发表于 2022-4-16 15:03:15 | 显示全部楼层
感谢楼主的分享,还是阔以滴
回复 支持 反对

使用道具 举报

40

主题

1561

帖子

4445

积分

4K家园VIP

Rank: 9Rank: 9Rank: 9

积分
4445
发表于 2022-4-16 16:04:10 | 显示全部楼层
学习下
回复 支持 反对

使用道具 举报

0

主题

1365

帖子

4111

积分

4K家园VIP

Rank: 9Rank: 9Rank: 9

积分
4111
发表于 2022-4-16 16:38:56 | 显示全部楼层
为保住菊花,这个一定得回复!
回复 支持 反对

使用道具 举报

主题

帖子

9

积分

新手上路

Rank: 1

积分
9
发表于 2022-4-16 17:05:57 | 显示全部楼层
感谢你的工作,为我们提供丰富资源
回复 支持 反对

使用道具 举报

28

主题

1295

帖子

3903

积分

4K家园VIP

Rank: 9Rank: 9Rank: 9

积分
3903
发表于 2022-4-16 17:20:17 | 显示全部楼层
鄙视楼下的顶帖没我快,哈哈
回复 支持 反对

使用道具 举报

3

主题

1390

帖子

4192

积分

4K家园VIP

Rank: 9Rank: 9Rank: 9

积分
4192
发表于 2022-4-16 18:43:43 | 显示全部楼层
试试先,好用再说
回复 支持 反对

使用道具 举报

主题

帖子

12

积分

新手上路

Rank: 1

积分
12
发表于 2022-4-16 19:59:17 | 显示全部楼层
fsdfsdfsdfdsfds
回复 支持 反对

使用道具 举报

主题

帖子

43

积分

新手上路

Rank: 1

积分
43
发表于 2022-4-16 21:40:16 | 显示全部楼层
感谢分享~~~~
回复

使用道具 举报

主题

帖子

44

积分

新手上路

Rank: 1

积分
44
发表于 2022-4-16 22:56:33 | 显示全部楼层
回复下赚取积分
回复 支持 反对

使用道具 举报

您需要登录后才可以回帖 登录 | 立即注册

本版积分规则

精彩图文
Archiver|手机版|TAG|Sitemap|新帖|专题|联系我们:邮箱: 4kjia.com@gmail.com   

4k家园   ©2019