[4K电影] 素食者联盟(内封简繁中字)/The Game Changers (2018)4K高清版本下载

[复制链接]

1701

主题

1834

帖子

1万

积分

超级版主

Rank: 8Rank: 8

积分
13887
 楼主| 发表于 2022-4-17 10:01:31 | 显示全部楼层 |阅读模式
QQ图片20220417100028_副本.png

◎译  名 素食者联盟 / 茹素的力量(台) / 游戏改变者 / 规则改变者
◎片  名 The Game Changers
◎年  代 2018
◎产  地 美国
◎类  别 纪录片
◎语  言 英语
◎上映日期 2018-01-19(圣丹斯电影节) / 2019-09-16(美国)
◎IMDb评分  7.8/10 from 19626 users
◎IMDb链接  https://www.imdb.com/title/tt7455754/
◎豆瓣评分 7.9/10 from 1587 users
◎豆瓣链接 https://movie.douban.com/subject/27621716/
◎片  长 108分钟
◎导  演 路易·西霍尤斯 Louie Psihoyos
◎编  剧 马克·蒙雷 Mark Monroe
◎演  员 阿诺·施瓦辛格 Arnold Schwarzenegger
       约翰·罗克斯特伦 Johan Rockstr?m
       詹姆斯·卡梅隆 James Cameron
       阿诺·施瓦辛格 Arnold Schwarzenegger


◎简  介


  格斗好手、健身达人James Wilks走遍各地,揭秘他们称之为“全世界最危险的神话”:肉类对营养、力量和理想健康状况来说必不可少——真的如此吗?也对素食主义进行了揭秘。施瓦辛格、“世界上最强壮的男人”Patrik Baboumian等顶级运动员、健身界名人也出镜讲述体验。
Video
ID : 1
Format : HEVC
Format/Info : High Efficiency Video Coding
Format profile : Main 10@L5@High
Codec ID : V_MPEGH/ISO/HEVC
Duration : 1 h 25 min
Bit rate : 20.1 Mb/s
Width : 3 840 pixels
Height : 2 160 pixels
Display aspect ratio : 16:9
Frame rate mode : Constant
Frame rate : 23.976 FPS
Color space : YUV
Chroma subsampling : 4:2:0
Bit depth : 10 bits
Bits/(Pixel*Frame) : 0.101
Stream size : 12.1 GiB (98%)
Default : Yes
Forced : No
Color range : Limited
Color primaries : BT.709
Transfer characteristics : BT.709
Matrix coefficients : BT.709

Audio
ID : 2
Format : AC-3
Format/Info : Audio Coding 3
Commercial name : Dolby Digital
Codec ID : A_AC3
Duration : 1 h 25 min
Bit rate mode : Constant
Bit rate : 384 kb/s
Channel(s) : 6 channels
Channel layout : L R C LFE Ls Rs
Sampling rate : 48.0 kHz
Frame rate : 31.250 FPS (1536 SPF)
Compression mode : Lossy
Stream size : 236 MiB (2%)
Language : English
Service kind : Complete Main
Default : Yes
Forced : No

Text #1
ID : 3
Format : UTF-8
Codec ID : S_TEXT/UTF8
Codec ID/Info : UTF-8 Plain Text
Duration : 1 h 23 min
Bit rate : 174 b/s
Count of elements : 1590
Stream size : 106 KiB (0%)
Title : Arabic
Language : Arabic
Default : No
Forced : No

Text #2
ID : 4
Format : UTF-8
Codec ID : S_TEXT/UTF8
Codec ID/Info : UTF-8 Plain Text
Duration : 1 h 23 min
Bit rate : 296 b/s
Count of elements : 1589
Stream size : 181 KiB (0%)
Title : Bengali
Language : Bengali
Default : No
Forced : No

Text #3
ID : 5
Format : UTF-8
Codec ID : S_TEXT/UTF8
Codec ID/Info : UTF-8 Plain Text
Duration : 1 h 23 min
Bit rate : 100 b/s
Count of elements : 1590
Stream size : 61.4 KiB (0%)
Title : 简体中文
Language : Chinese
Default : No
Forced : No


Text #4
ID : 6
Format : UTF-8
Codec ID : S_TEXT/UTF8
Codec ID/Info : UTF-8 Plain Text
Duration : 1 h 23 min
Bit rate : 98 b/s
Count of elements : 1590
Stream size : 60.0 KiB (0%)
Title : 繁体中文
Language : Chinese
Default : No
Forced : No

Text #5
ID : 7
Format : UTF-8
Codec ID : S_TEXT/UTF8
Codec ID/Info : UTF-8 Plain Text
Duration : 1 h 23 min
Bit rate : 114 b/s
Count of elements : 1589
Stream size : 69.6 KiB (0%)
Title : Czech
Language : Czech
Default : No
Forced : No

Text #6
ID : 8
Format : UTF-8
Codec ID : S_TEXT/UTF8
Codec ID/Info : UTF-8 Plain Text
Duration : 1 h 23 min
Bit rate : 119 b/s
Count of elements : 1582
Stream size : 72.6 KiB (0%)
Title : Danish
Language : Danish
Default : No
Forced : No

Text #7
ID : 9
Format : UTF-8
Codec ID : S_TEXT/UTF8
Codec ID/Info : UTF-8 Plain Text
Duration : 1 h 23 min
Bit rate : 120 b/s
Count of elements : 1563
Stream size : 73.4 KiB (0%)
Title : German
Language : German
Default : No
Forced : No

Text #8
ID : 10
Format : UTF-8
Codec ID : S_TEXT/UTF8
Codec ID/Info : UTF-8 Plain Text
Duration : 30 min 16 s
Bit rate : 130 b/s
Count of elements : 672
Stream size : 29.0 KiB (0%)
Title : English CC
Language : English
Default : No
Forced : No

Text #9
ID : 11
Format : UTF-8
Codec ID : S_TEXT/UTF8
Codec ID/Info : UTF-8 Plain Text
Duration : 1 h 23 min
Bit rate : 121 b/s
Count of elements : 1555
Stream size : 74.1 KiB (0%)
Title : Spanish Latin American
Language : Spanish
Default : No
Forced : No

Text #10
ID : 12
Format : UTF-8
Codec ID : S_TEXT/UTF8
Codec ID/Info : UTF-8 Plain Text
Duration : 1 h 23 min
Bit rate : 113 b/s
Count of elements : 1579
Stream size : 69.0 KiB (0%)
Title : Spanish European
Language : Spanish
Default : No
Forced : No

Text #11
ID : 13
Format : UTF-8
Codec ID : S_TEXT/UTF8
Codec ID/Info : UTF-8 Plain Text
Duration : 1 h 23 min
Bit rate : 113 b/s
Count of elements : 1555
Stream size : 68.7 KiB (0%)
Title : Finnish
Language : Finnish
Default : No
Forced : No

Text #12
ID : 14
Format : UTF-8
Codec ID : S_TEXT/UTF8
Codec ID/Info : UTF-8 Plain Text
Duration : 1 h 23 min
Bit rate : 121 b/s
Count of elements : 1580
Stream size : 73.9 KiB (0%)
Title : French Canadian
Language : French
Default : No
Forced : No

Text #13
ID : 15
Format : UTF-8
Codec ID : S_TEXT/UTF8
Codec ID/Info : UTF-8 Plain Text
Duration : 1 h 23 min
Bit rate : 118 b/s
Count of elements : 1572
Stream size : 72.3 KiB (0%)
Title : French European
Language : French
Default : No
Forced : No

Text #14
ID : 16
Format : UTF-8
Codec ID : S_TEXT/UTF8
Codec ID/Info : UTF-8 Plain Text
Duration : 1 h 23 min
Bit rate : 278 b/s
Count of elements : 1593
Stream size : 169 KiB (0%)
Title : Hindi
Language : Hindi
Default : No
Forced : No

Text #15
ID : 17
Format : UTF-8
Codec ID : S_TEXT/UTF8
Codec ID/Info : UTF-8 Plain Text
Duration : 1 h 23 min
Bit rate : 115 b/s
Count of elements : 1564
Stream size : 70.5 KiB (0%)
Title : Indonesian
Language : Indonesian
Default : No
Forced : No

Text #16
ID : 18
Format : UTF-8
Codec ID : S_TEXT/UTF8
Codec ID/Info : UTF-8 Plain Text
Duration : 1 h 23 min
Bit rate : 115 b/s
Count of elements : 1555
Stream size : 70.1 KiB (0%)
Title : Icelandic
Language : Icelandic
Default : No
Forced : No

Text #17
ID : 19
Format : UTF-8
Codec ID : S_TEXT/UTF8
Codec ID/Info : UTF-8 Plain Text
Duration : 1 h 23 min
Bit rate : 120 b/s
Count of elements : 1537
Stream size : 73.5 KiB (0%)
Title : Italian
Language : Italian
Default : No
Forced : No

Text #18
ID : 20
Format : UTF-8
Codec ID : S_TEXT/UTF8
Codec ID/Info : UTF-8 Plain Text
Duration : 1 h 23 min
Bit rate : 92 b/s
Count of elements : 1512
Stream size : 56.4 KiB (0%)
Title : Japanese
Language : Japanese
Default : No
Forced : No

Text #19
ID : 21
Format : UTF-8
Codec ID : S_TEXT/UTF8
Codec ID/Info : UTF-8 Plain Text
Duration : 1 h 23 min
Bit rate : 130 b/s
Count of elements : 1594
Stream size : 79.2 KiB (0%)
Title : Korean
Language : Korean
Default : No
Forced : No

Text #20
ID : 22
Format : UTF-8
Codec ID : S_TEXT/UTF8
Codec ID/Info : UTF-8 Plain Text
Duration : 1 h 23 min
Bit rate : 125 b/s
Count of elements : 1576
Stream size : 76.3 KiB (0%)
Title : Malay
Language : Malay
Default : No
Forced : No

Text #21
ID : 23
Format : UTF-8
Codec ID : S_TEXT/UTF8
Codec ID/Info : UTF-8 Plain Text
Duration : 1 h 23 min
Bit rate : 100 b/s
Count of elements : 1352
Stream size : 60.9 KiB (0%)
Title : Dutch
Language : Dutch
Default : No
Forced : No

Text #22
ID : 24
Format : UTF-8
Codec ID : S_TEXT/UTF8
Codec ID/Info : UTF-8 Plain Text
Duration : 1 h 23 min
Bit rate : 112 b/s
Count of elements : 1541
Stream size : 68.3 KiB (0%)
Title : Norwegian
Language : Norwegian
Default : No
Forced : No

Text #23
ID : 25
Format : UTF-8
Codec ID : S_TEXT/UTF8
Codec ID/Info : UTF-8 Plain Text
Duration : 1 h 23 min
Bit rate : 112 b/s
Count of elements : 1553
Stream size : 68.5 KiB (0%)
Title : Polish
Language : Polish
Default : No
Forced : No

Text #24
ID : 26
Format : UTF-8
Codec ID : S_TEXT/UTF8
Codec ID/Info : UTF-8 Plain Text
Duration : 1 h 23 min
Bit rate : 124 b/s
Count of elements : 1574
Stream size : 76.0 KiB (0%)
Title : Portuguese Brazilian
Language : Portuguese
Default : No
Forced : No

Text #25
ID : 27
Format : UTF-8
Codec ID : S_TEXT/UTF8
Codec ID/Info : UTF-8 Plain Text
Duration : 1 h 23 min
Bit rate : 209 b/s
Count of elements : 1588
Stream size : 127 KiB (0%)
Title : Russian
Language : Russian
Default : No
Forced : No

Text #26
ID : 28
Format : UTF-8
Codec ID : S_TEXT/UTF8
Codec ID/Info : UTF-8 Plain Text
Duration : 1 h 23 min
Bit rate : 101 b/s
Count of elements : 1579
Stream size : 61.9 KiB (0%)
Title : Slovenian
Language : Slovenian
Default : No
Forced : No

Text #27
ID : 29
Format : UTF-8
Codec ID : S_TEXT/UTF8
Codec ID/Info : UTF-8 Plain Text
Duration : 1 h 23 min
Bit rate : 119 b/s
Count of elements : 1559
Stream size : 72.6 KiB (0%)
Title : Swedish
Language : Swedish
Default : No
Forced : No

Menu
00:00:00.000 : en:Chapter 01
00:10:22.622 : en:Chapter 02
00:21:22.240 : en:Chapter 03
00:31:40.859 : en:Chapter 04
00:41:19.437 : en:Chapter 05
00:53:05.685 : en:Chapter 06
01:04:13.645 : en:Chapter 07
01:12:56.626 : en:Chapter 08
01:21:42.694 : en:Chapter 09

资源速度为零或资源敏感被和谐时,推荐使用qBittorrent等下载软件,有条件的推荐115更好的下载软件!

下载地址:



游客,如果您要查看本帖隐藏内容请回复






上一篇:探寻鲸之音 (内封简体中字) / Fathom (2021) 4K高清版本下载
下一篇:[第53届奥斯卡] 普通人 / Ordinary People (1980) 4K高清版本下载
回复

使用道具 举报

0

主题

1339

帖子

4039

积分

4K家园VIP

Rank: 9Rank: 9Rank: 9

积分
4039
发表于 2022-4-17 10:01:36 | 显示全部楼层
向楼主学习
回复 支持 反对

使用道具 举报

0

主题

12

帖子

863

积分

4K家园VIP

Rank: 9Rank: 9Rank: 9

积分
863
发表于 2022-4-17 10:47:36 | 显示全部楼层
哇哦,有点兴趣
回复 支持 反对

使用道具 举报

37

主题

1407

帖子

4037

积分

4K家园VIP

Rank: 9Rank: 9Rank: 9

积分
4037
发表于 2022-4-17 11:38:12 | 显示全部楼层
我也是坐沙发的
回复 支持 反对

使用道具 举报

0

主题

1301

帖子

3919

积分

4K家园VIP

Rank: 9Rank: 9Rank: 9

积分
3919
发表于 2022-4-17 12:47:50 | 显示全部楼层
鼎力支持!!
回复 支持 反对

使用道具 举报

1

主题

1357

帖子

3903

积分

4K家园VIP

Rank: 9Rank: 9Rank: 9

积分
3903
发表于 2022-4-17 13:36:36 | 显示全部楼层
楼猪V5啊
回复 支持 反对

使用道具 举报

1

主题

1388

帖子

4000

积分

4K家园VIP

Rank: 9Rank: 9Rank: 9

积分
4000
发表于 2022-4-17 15:24:03 来自手机 | 显示全部楼层
前排支持下
回复 支持 反对

使用道具 举报

0

主题

67

帖子

546

积分

新手上路

Rank: 1

积分
546
发表于 2022-4-19 10:45:26 | 显示全部楼层

купить китайское лекарство от рака груди

Официальный сайт Государственного Военного госпиталя Китая.
Первый государственный военный госпиталь в Китае, получивший лицензию на прием иностранных граждан. Профессиональный коллектив которого проводит лечение пациентов и обучение иностранных студентов для прохождения интернатуры и клинической ординатуры. Китайские врачи работают с больными, страдающими от различных тяжелых и хронических заболеваний. В знак признания выдающегося результатов в области обслуживания международных пациентов с 1947 года китайское правительство наградило госпиталь званием «Международный госпиталь Далянь Красного Креста» в июне 2015. В июле 2016 года, был получен особый статус — «Международный госпиталь традиционной китайской медицины Красного Креста ». В 2021 году, во время пандемии короновируса, госпиталь начал провдить программы удаленного лечения, с помощью видео консультации с профессорами и отправки китайских лекарств пациентам почтой.
Рекомендации и назначение плана удаленного  лечения для иностранных пациентов составляются индивидуально и бесплатно.




RHzs43hgndIpuiSy
回复 支持 反对

使用道具 举报

0

主题

7

帖子

37

积分

新手上路

Rank: 1

积分
37
发表于 前天 21:31 | 显示全部楼层
多谢分享
回复

使用道具 举报

您需要登录后才可以回帖 登录 | 立即注册

本版积分规则

精彩图文
Archiver|手机版|TAG|Sitemap|新帖|专题|联系我们:邮箱: 4kjia.com@gmail.com   

4k家园   ©2019